磁力链接吧

 找回密码
 立即注册
搜索

狂武藏 Crazy.Samurai.Musashi.2020.JAPANESE.1080p.BluRay.x264.DTS-MT 13.69GB

[复制链接]
百度云资源 发表于 2021-3-6 22:37:53 | 显示全部楼层 |阅读模式
-->
帖子完整标题:狂武藏 Crazy.Samurai.Musashi.2020.JAPANESE.1080p.BluRay.x264.DTS-MT 13.69GB


[/url]

◎译  名 狂武藏/Crazy Samurai Musashi
◎片  名 狂武蔵
◎年  代 2020
◎产  地 日本
◎类  别 动作
◎语  言 日语
◎上映日期 2020-08-21(日本)
◎IMDb评分  4.5/10 from 292 users
◎  
◎豆瓣评分 5.7/10 from 165 users
◎ 
◎片  长 91分钟
◎导  演 下村勇二 Y?ji Shimomura
◎编  剧 园子温 Shion Sono / 灯敦生 Atsuki Tomori
◎主  演 坂口拓 Tak Sakaguchi
       山崎贤人 Kento Yamazaki
       樋浦勉 Ben Hiura
       斋藤洋介 Y?suke Sait?
       山中新 Arata Yamanaka

◎标  签 动作 | 日本 | 日本电影 | 剑戟片 | 山崎贤人 | 2020 | 日影 | 战争

◎简  介

  讲述的是宫本武藏和兵法名宿吉冈家族对决的故事,由动作片演员坂口拓饰演宫本武藏,山崎贤人饰演武士“忠助”——率领吉冈一族100人和其他流派的300人,为好友吉冈清十郎复仇,讨伐宫本武藏。
Video
ID                                       : 1
Format                                   : AVC
Format/Info                              : Advanced Video Codec
Format profile                           :
Format settings                          : CABAC / 4 Ref Frames
Format settings, CABAC                   : Yes
Format settings, Reference frames        : 4 frames
Codec ID                                 : V_MPEG4/ISO/AVC
Duration                                 : 1 h 31 min
Bit rate                                 : 19.8 Mb/s
Width                                    : 1 920 pixels
Height                                   : 1 080 pixels
Display aspect ratio                     : 16:9
Frame rate mode                          : Constant
Frame rate                               : 23.976 (24000/1001/189150) FPS
Color space                              : YUV
Chroma subsampling                       : 4:2:0
Bit depth                                : 8 bits
Scan type                                : Progressive
Bits/(Pixel*Frame)                       : 0.398
Stream size                              : 12.7 GiB (93%)
Writing library                          : x264 core 157 r2938 2b00a84  Mod
Encoding settings                        : cabac=1 / ref=4 / deblock=1:-3:-3 / analyse=0x3:0x133 / me=umh / subme=10 / psy=1 / psy_rd=1.05:0.00 / mixed_ref=1 / me_range=32 / chroma_me=1 / trellis=2 / 8x8dct=1 / cqm=0 / deadzone=21,11 / fast_pskip=0 / chroma_qp_offset=-2 / threads=12 / lookahead_threads=2 / sliced_threads=0 / nr=0 / decimate=0 / interlaced=0 / bluray_compat=0 / constrained_intra=0 / bframes=8 / b_pyramid=2 / b_adapt=2 / b_bias=0 / direct=3 / weightb=1 / open_gop=0 / weightp=2 / keyint=250 / keyint_min=24 / scenecut=40 / intra_refresh=0 / rc_lookahead=250 / rc=crf / mbtree=0 / crf=16.8 / qcomp=0.60 / qpmin=0 / qpmax=69 / qpstep=4 / vbv_maxrate=62500 / vbv_bufsize=78125 / crf_max=0.0 / nal_hrd=none / filler=0 / ip_ratio=1.30 / pb_ratio=1.20 / aq=3:0.80
Language                                 : Japanese
Default                                  : Yes
Forced                                   : No
Color range                              : Limited
Color primaries                          : BT.709
Matrix coefficients                      : BT.709

Audio
ID                                       : 2
Format                                   : DTS
Format/Info                              : Digital Theater Systems
Codec ID                                 : A_DTS
Duration                                 : 1 h 31 min
Bit rate mode                            : Constant
Bit rate                                 : 1 509 kb/s
Channel(s)                               : 6 channels
Channel layout                           : C L R Ls Rs LFE
Sampling rate                            : 48.0 kHz
Frame rate                               : 93.750 FPS (512 SPF)
Bit depth                                : 16 bits
Compression mode                         : Lossy
Stream size                              : 992 MiB (7%)
Language                                 : Japanese
Default                                  : Yes
Forced                                   : No

Text
ID                                       : 3
Format                                   : UTF-8
Codec ID                                 : S_TEXT/UTF8
Codec ID/Info                            : UTF-8 Plain Text
Duration                                 : 1 h 25 min
Bit rate                                 : 7 b/s
Count of elements                        : 198
Stream size                              : 4.58 KiB (0%)
Title                                    : SRT
Language                                 : English
Default                                  : Yes
Forced                                   : No

Menu
00:00:00.000                             : en:Chapter 01
00:08:36.266                             : en:Chapter 02
00:17:02.480                             : en:Chapter 03
00:27:41.952                             : en:Chapter 04
00:39:58.855                             : en:Chapter 05
00:50:11.467                             : en:Chapter 06
01:01:08.540                             : en:Chapter 07
01:10:26.681                             : en:Chapter 08
01:19:11.038                             : en:Chapter 09
01:27:15.522                             : en:Chapter 10
[/url][/url]



                                                                                                                                                                                                        
                                                                                                                                                                                                                                                                                                                                                                                                                                                                                                                                                                                                                                                                                                                                                                                                                                                        
67313e6abc9112a3b53f1e49d731990c.zip (69.14 KB, 下载次数: 8)

回复

使用道具 举报

小黑屋|磁力链接吧 |网站地图

本网站所有资源来自网络,如无意中侵犯了您的权益,请发邮件至 [email protected],立即清除相关链接

GMT+8, 2021-4-16 08:06 , Processed in 0.116147 second(s), 22 queries .

Powered by Discuz! X3.2

© 2001-2013 Comsenz Inc.

快速回复 返回顶部 返回列表