磁力链接吧

 找回密码
 立即注册
搜索

[BD-4K] 哈拉/爱由自主 Hala.2019.2160p.ATVP.WEB-DL.DDP5.1.Atmos.DV.x265-iKA 16.29GB

[复制链接]
百度云资源 发表于 2021-3-5 08:54:48 | 显示全部楼层 |阅读模式
-->
帖子完整标题:哈拉/爱由自主 Hala.2019.2160p.ATVP.WEB-DL.DDP5.1.Atmos.DV.x265-iKA 16.29GB


[/url]

◎译  名 哈拉/爱由自主
◎片  名 Hala
◎年  代 2019
◎产  地 美国
◎类  别 剧情
◎语  言 英语,乌尔都语
◎上映日期 2019-01-26(圣丹斯电影节) / 2019-12-06(美国)
◎IMDb评分  5.9/10 from 1738 users
◎  
◎豆瓣评分 6.7/10 from 325 users
◎ 
◎片  长 93分钟
◎导  演 明哈尔·贝格 Minhal Baig
◎编  剧 明哈尔·贝格 Minhal Baig
◎主  演 杰拉尔丁·维斯瓦纳坦 Geraldine Viswanathan
       杰克·基默 Jack Kilmer
       加布里埃尔·鲁纳 Gabriel Luna
       安娜·克拉姆斯基 Anna Chlumsky
       萨姆·史特拉雷 Sam Straley
       Jimmy Chung
       Purbi Joshi
       Azad Khan
       Keith LeCreed Harris
       Taylor Marie Blim
       Celia Skvaril
       雷文·惠特利 Raven Whitley

◎标  签 青春 | 2019 | 美国 | 女性 | 剧情 | 穆斯林 | 美国电影 | 成长

◎简  介

  Hala是父亲的骄傲,她尽职尽责、有学术天赋,能够巧妙地驾驭她在芝加哥的青少年社交生活、以及作为巴基斯坦移民的独生子女的义务。
  
  然而随着高中毕业的临近,Hala 遇到了青春期的烦恼。她遇到同班级热情洋溢的滑板男孩 Jesse,但这段浪漫的感情,却因信仰和包办婚姻的传统而变得复杂。
  
  开始挑战这些习俗,将自己的生活与父母解绑,这无疑是对自身力量与呐喊的一次重大考验。

◎获奖情况

  第35届圣丹斯电影节 ?(2019)
  评审团大奖剧情片(提名) 明哈尔·贝格
Video
ID                                       : 1
Format                                   : HEVC
Format/Info                              : High Efficiency Video Coding
Format profile                           : Main @High
HDR format                               : Dolby Vision, Version 1.0, dvhe.05.06, BL+RPU
Codec ID                                 : dvhe
Codec ID/Info                            : High Efficiency Video Coding with Dolby Vision
Duration                                 : 1 h 33 min
Bit rate                                 : 24.1 Mb/s
Width                                    : 3 840 pixels
Height                                   : 2 080 pixels
Original height                          : 2 076 pixels
Display aspect ratio                     : 1.85:1
Original display aspect ratio            : 1.85:1
Frame rate mode                          : Constant
Frame rate                               : 23.976 (24000/1001/189150) FPS
Color space                              : YUV
Chroma subsampling                       : 4:2:0
Bit depth                                : 10 bits
Bits/(Pixel*Frame)                       : 0.126
Stream size                              : 15.8 GiB (97%)
Default                                  : Yes
Alternate group                          : 1
Codec configuration box                  : hvcC+dvcC

Audio
ID                                       : 2
Format                                   : E-AC-3 JOC
Format/Info                              : Enhanced AC-3 with Joint Object Coding
Commercial name                          : Dolby Digital Plus with Dolby Atmos
Codec ID                                 : ec-3
Duration                                 : 1 h 33 min
Bit rate mode                            : Constant
Bit rate                                 : 768 kb/s
Maximum bit rate                         : 811 kb/s
Channel(s)                               : 6 channels
Channel layout                           : L R C LFE Ls Rs
Sampling rate                            : 48.0 kHz
Frame rate                               : 31.250 FPS (1536 SPF)
Compression mode                         : Lossy
Stream size                              : 516 MiB (3%)
Language                                 : English
Service kind                             : Complete Main
Default                                  : Yes
Alternate group                          : 2
Complexity index                         : Not present / 16
Number of dynamic objects                : 15
Bed channel count                        : 1 channel
Bed channel configuration                : LFE

Text #1
ID                                       : 3
Format                                   : Timed Text
Codec ID                                 : tx3g
Duration                                 : 1 h 33 min
Bit rate mode                            : Variable
Bit rate                                 : 48 b/s
Stream size                              : 32.8 KiB (0%)
Title                                    : Dansk
Language                                 : Danish
Forced                                   : No

Text #2
ID                                       : 4
Format                                   : Timed Text
Codec ID                                 : tx3g
Duration                                 : 1 h 33 min
Bit rate mode                            : Variable
Bit rate                                 : 46 b/s
Stream size                              : 31.9 KiB (0%)
Title                                    : German
Language                                 : German
Forced                                   : No

Text #3
ID                                       : 5
Format                                   : Timed Text
Codec ID                                 : tx3g
Duration                                 : 1 h 33 min
Bit rate mode                            : Variable
Bit rate                                 : 47 b/s
Stream size                              : 32.3 KiB (0%)
Title                                    : Espa?ol (Latinoamericano)
Language                                 : Spanish
Forced                                   : No

Text #4
ID                                       : 6
Format                                   : Timed Text
Codec ID                                 : tx3g
Duration                                 : 1 h 33 min
Bit rate mode                            : Variable
Bit rate                                 : 48 b/s
Stream size                              : 32.8 KiB (0%)
Title                                    : Espa?ol
Language                                 : Spanish
Forced                                   : No

Text #5
ID                                       : 7
Format                                   : Timed Text
Codec ID                                 : tx3g
Duration                                 : 1 h 33 min
Bit rate mode                            : Variable
Bit rate                                 : 45 b/s
Stream size                              : 31.0 KiB (0%)
Title                                    : Suomi
Language                                 : Finnish
Forced                                   : No

Text #6
ID                                       : 8
Format                                   : Timed Text
Codec ID                                 : tx3g
Duration                                 : 1 h 33 min
Bit rate mode                            : Variable
Bit rate                                 : 48 b/s
Stream size                              : 32.8 KiB (0%)
Title                                    : Fran?ais
Language                                 : French
Forced                                   : No

Text #7
ID                                       : 9
Format                                   : Timed Text
Codec ID                                 : tx3g
Duration                                 : 1 h 33 min
Bit rate mode                            : Variable
Bit rate                                 : 48 b/s
Stream size                              : 33.1 KiB (0%)
Title                                    : Italiano
Language                                 : Italian
Forced                                   : No

Text #8
ID                                       : 10
Format                                   : Timed Text
Codec ID                                 : tx3g
Duration                                 : 1 h 33 min
Bit rate mode                            : Variable
Bit rate                                 : 41 b/s
Stream size                              : 28.5 KiB (0%)
Title                                    : Nederlands
Language                                 : Dutch
Forced                                   : No

Text #9
ID                                       : 11
Format                                   : Timed Text
Codec ID                                 : tx3g
Duration                                 : 1 h 33 min
Bit rate mode                            : Variable
Bit rate                                 : 47 b/s
Stream size                              : 32.1 KiB (0%)
Title                                    : Norsk
Language                                 : Norwegian
Forced                                   : No

Text #10
ID                                       : 12
Format                                   : Timed Text
Codec ID                                 : tx3g
Duration                                 : 1 h 33 min
Bit rate mode                            : Variable
Bit rate                                 : 46 b/s
Stream size                              : 31.9 KiB (0%)
Title                                    : Português (Brasil)
Language                                 : Portuguese
Forced                                   : No

Text #11
ID                                       : 13
Format                                   : Timed Text
Codec ID                                 : tx3g
Duration                                 : 1 h 33 min
Bit rate mode                            : Variable
Bit rate                                 : 47 b/s
Stream size                              : 32.3 KiB (0%)
Title                                    : Português
Language                                 : Portuguese
Forced                                   : No

Text #12
ID                                       : 14
Format                                   : Timed Text
Codec ID                                 : tx3g
Duration                                 : 1 h 33 min
Bit rate mode                            : Variable
Bit rate                                 : 47 b/s
Stream size                              : 32.4 KiB (0%)
Title                                    : Svenska
Language                                 : Swedish
Forced                                   : No

Text #13
ID                                       : 15
Format                                   : Timed Text
Codec ID                                 : tx3g
Duration                                 : 1 h 27 min
Bit rate mode                            : Variable
Bit rate                                 : 57 b/s
Stream size                              : 36.6 KiB (0%)
Title                                    : English (SDH)
Language                                 : English
Forced                                   : No




                                                                                                                                                                                                        
                                                                                                                                                                                                                                                                                                                                                                                                                                                                                                                                                                                                                                                                                                                                                                                                                                                        
7e1c59e5ee509f344b08996220baf5bc.zip (82.14 KB, 下载次数: 1)

回复

使用道具 举报

小黑屋|磁力链接吧 |网站地图

本网站所有资源来自网络,如无意中侵犯了您的权益,请发邮件至 [email protected],立即清除相关链接

GMT+8, 2021-4-20 08:14 , Processed in 0.106626 second(s), 22 queries .

Powered by Discuz! X3.2

© 2001-2013 Comsenz Inc.

快速回复 返回顶部 返回列表