磁力链接吧

 找回密码
 立即注册
搜索

[BD-4K] 托尔金 Tolkien.2019.2160p.WEB-DL.x265.10bit.HDR.DTS-HD.MA.5.1-SWTYBLZ 22.22GB

[复制链接]
百度云资源 发表于 2021-3-5 08:54:48 | 显示全部楼层 |阅读模式
-->
帖子完整标题:托尔金 Tolkien.2019.2160p.WEB-DL.x265.10bit.HDR.DTS-HD.MA.5.1-SWTYBLZ 22.22GB


[/url]

◎译  名 托尔金/A Light in the Darkness/J.R.R. Tolkien
◎片  名 Tolkien
◎年  代 2019
◎产  地 美国
◎类  别 剧情 / 传记
◎语  言 英语
◎上映日期 2019-05-03(英国) / 2019-05-10(美国)
◎IMDb评分  6.8/10 from 33529 users
◎  
◎豆瓣评分 6.9/10 from 6766 users
◎ 
◎片  长 112分钟
◎导  演 多姆·卡如库斯基 Dome Karukoski
◎编  剧 大卫·格里森 David Gleeson / 史蒂文·贝雷斯福德 Stephen Beresford
◎主  演 尼古拉斯·霍尔特 Nicholas Hoult
       莉莉·柯林斯 Lily Collins
       吉娜薇·欧瑞丽 Genevieve O'Reilly
       帕姆·费里斯 Pam Ferris
       米米·基恩 Mimi Keene
       科尔姆·米尼 Colm Meaney
       德里克·雅各比 Derek Jacobi
       克雷格·罗伯兹 Craig Roberts
       帕特里克·吉布森 Patrick Gibson
       劳拉·唐奈里 Laura Donnelly
       安东尼·鲍伊 Anthony Boyle
       汤姆·格林-卡尼 Tom Glynn-Carney
       哈利·基尔比 Harry Gilby
       康纳·沃尔夫 Connor Wolf
       大卫·普克里奇 David Puckridge
       乔尔·菲利莫尔 Joel Phillimore
       阿尔比·马伯 Albie Marber
       亚当·布雷格曼 Adam Bregman
       泰·田纳特 Ty Tennant

◎标  签 传记 | 托尔金 | 英国 | 剧情 | 2019 | 美国 | 纪录片 | 魔戒

◎简  介

  托尔金(尼古拉斯·霍尔特 Nicholas Hoult 饰)和弟弟在很小的时候就被亲人抛弃了,善良的神父弗朗西斯(科尔姆·米尼 Colm Meaney 饰)收留了无家可归的兄弟两人,他们从此便浸淫在浓厚的天主教文化之中。
  
  长大后的托尔金凭借自己的努力进入了一所贵族学校就读,在那里,他遇见了罗伯特(帕特里克·吉布森 Patrick Gibson 饰)、杰弗里(安东尼·鲍伊 Anthony Boyle 饰)和怀斯曼(泰·田纳特 Ty Tennant 饰)等同龄人,对于文学和艺术的热情让他们之间结下了深厚的友谊。与此同时,托尔金还遇到了自己的伯乐约瑟夫教授(德里克·雅各比 Derek Jacobi 饰),他在托尔金的身上看到了无穷无尽的可能性。
Video
ID                                       : 1
Format                                   : HEVC
Format/Info                              : High Efficiency Video Coding
Format profile                           : Main @High
HDR format                               : SMPTE ST 2086, HDR10 compatible
Codec ID                                 : V_MPEGH/ISO/HEVC
Duration                                 : 1 h 51 min
Bit rate                                 : 24.8 Mb/s
Width                                    : 3 840 pixels
Height                                   : 2 160 pixels
Display aspect ratio                     : 16:9
Frame rate mode                          : Constant
Frame rate                               : 23.976 (24000/1001/189150) FPS
Color space                              : YUV
Chroma subsampling                       : 4:2:0 (Type 2)
Bit depth                                : 10 bits
Bits/(Pixel*Frame)                       : 0.125
Stream size                              : 19.3 GiB (87%)
Default                                  : Yes
Forced                                   : No
Color range                              : Limited
Color primaries                          : BT.2020
Transfer characteristics                 : PQ
Matrix coefficients                      : BT.2020 non-constant
Mastering display color primaries        : Display P3
Mastering display luminance              : min: 0.0050 cd/m2, max: 1000 cd/m2

Audio #1
ID                                       : 2
Format                                   : DTS XLL
Format/Info                              : Digital Theater Systems
Commercial name                          : DTS-HD Master Audio
Codec ID                                 : A_DTS
Duration                                 : 1 h 51 min
Bit rate mode                            : Variable
Bit rate                                 : 3 437 kb/s
Channel(s)                               : 6 channels
Channel layout                           : C L R Ls Rs LFE
Sampling rate                            : 48.0 kHz
Frame rate                               : 93.750 FPS (512 SPF)
Bit depth                                : 24 bits
Compression mode                         : Lossless
Delay relative to video                  : 1 s 240 ms
Stream size                              : 2.68 GiB (12%)
Title                                    : DTS-HD MA 5.1
Language                                 : English
Default                                  : Yes
Forced                                   : No

Audio #2
ID                                       : 3
Format                                   : E-AC-3
Format/Info                              : Enhanced AC-3
Commercial name                          : Dolby Digital Plus
Codec ID                                 : A_EAC3
Duration                                 : 1 h 51 min
Bit rate mode                            : Constant
Bit rate                                 : 256 kb/s
Channel(s)                               : 6 channels
Channel layout                           : L R C LFE Ls Rs
Sampling rate                            : 48.0 kHz
Frame rate                               : 31.250 FPS (1536 SPF)
Compression mode                         : Lossy
Stream size                              : 205 MiB (1%)
Title                                    : DDP 5.1
Language                                 : English
Service kind                             : Complete Main
Default                                  : No
Forced                                   : No

Text
ID                                       : 4
Format                                   : UTF-8
Codec ID                                 : S_TEXT/UTF8
Codec ID/Info                            : UTF-8 Plain Text
Duration                                 : 1 h 44 min
Bit rate                                 : 66 b/s
Count of elements                        : 1757
Stream size                              : 51.2 KiB (0%)
Title                                    : English
Language                                 : English
Default                                  : Yes
Forced                                   : No

Menu
00:00:00.000                             : en:Chapter 01
00:06:27.136                             : en:Chapter 02
00:11:09.418                             : en:Chapter 03
00:15:50.741                             : en:Chapter 04
00:21:00.884                             : en:Chapter 05
00:25:53.802                             : en:Chapter 06
00:34:35.031                             : en:Chapter 07
00:37:46.264                             : en:Chapter 08
00:42:01.227                             : en:Chapter 09
00:44:44.139                             : en:Chapter 10
00:47:39.773                             : en:Chapter 11
00:52:04.913                             : en:Chapter 12
00:57:06.297                             : en:Chapter 13
00:59:59.804                             : en:Chapter 14
01:04:39.333                             : en:Chapter 15
01:08:08.834                             : en:Chapter 16
01:11:17.398                             : en:Chapter 17
01:14:29.089                             : en:Chapter 18
01:19:45.655                             : en:Chapter 19
01:26:09.539                             : en:Chapter 20
01:32:11.984                             : en:Chapter 21
01:35:52.913                             : en:Chapter 22
01:40:05.290                             : en:Chapter 23
01:45:06.091                             : en:Chapter 24




                                                                                                                                                                                                        
                                                                                                                                                                                                                                                                                                                                                                                                                                                                                                                                                                                                                                                                                                                                                                                                                                                        
1a0c5c226bdad740a96b4dba177f9f46.zip (56.25 KB, 下载次数: 3)

回复

使用道具 举报

小黑屋|磁力链接吧 |网站地图

本网站所有资源来自网络,如无意中侵犯了您的权益,请发邮件至 [email protected],立即清除相关链接

GMT+8, 2021-4-16 11:22 , Processed in 0.125082 second(s), 22 queries .

Powered by Discuz! X3.2

© 2001-2013 Comsenz Inc.

快速回复 返回顶部 返回列表