磁力链接吧

 找回密码
 立即注册
搜索

领袖水准/回路追杀令 Boss.Level.2020.1080p.BluRay.x264-GELMIBSON 16.09GB

[复制链接]
百度云资源 发表于 2021-3-5 07:37:48 | 显示全部楼层 |阅读模式
-->
帖子完整标题:领袖水准/回路追杀令 Boss.Level.2020.1080p.BluRay.x264-GELMIBSON 16.09GB


[/url]

◎译  名 领袖水准/回路追杀令(台)/循环:终级之战
◎片  名 Boss Level
◎年  代 2020
◎产  地 美国
◎类  别 动作 / 科幻 / 惊悚
◎语  言 英语
◎上映日期 2020-02-11(美国点映) / 2021-03-05(美国)
◎IMDb评分  6.8/10 from 4505 users
◎  
◎豆瓣评分 6.9/10 from 6871 users
◎ 
◎片  长 100分钟
◎导  演 乔·卡纳汉 Joe Carnahan
◎编  剧 克里斯·博雷 Chris Borey / 埃迪·博雷 Eddie Borey / 乔·卡纳汉 Joe Carnahan
◎主  演 梅尔·吉布森 Mel Gibson
       安娜贝拉·沃丽丝 Annabelle Wallis
       杨紫琼 Michelle Yeoh
       弗兰克·格里罗 Frank Grillo
       娜奥米·沃茨 Naomi Watts
       郑肯 Ken Jeong
       威尔·萨索 Will Sasso
       赛琳娜·露 Selina Lo
       马蒂尔德·奥利维耶 Mathilde Ollivier
       泰勒·乔恩·奥尔森 Tyler Jon Olson
       斯温·特梅尔 Swen Temmel
       希·麦金尼 Sheaun McKinney
       埃里克·艾特巴里 Eric Etebari
       奎顿·杰克逊 Quinton 'Rampage' Jackson
       约翰·塞纳迭姆博 John Cenatiempo
       卡洛斯·阿维尔斯 Carlos Aviles
       罗布·格隆科夫斯基 Rob Gronkowski
       巴斯特·雷维斯 Buster Reeves
       迈克尔·图尔克 Michael Tourek
       艾伦·比尔纳 Aaron Beelner
       乔·奈泽维奇 Joe Knezevich
       詹姆斯·威廉·巴拉德 James William Ballard
       亚当·G·西蒙 Adam G. Simon
       Rashad Evans
       本杰明·韦弗 Benjamin Weaver
       罗伯特·廷斯利 Robert Tinsley
       梅多·威廉姆斯 Meadow Williams

◎标  签 科幻 | 动作 | 美国 | 喜剧 | 2020 | 美国电影 | 梅尔吉布森 | 电影

◎简  介

  梅尔·吉布森、弗兰克·格里罗商谈加盟动作惊悚片《领袖水准》(Boss Level),乔·卡纳汉(《人狼大战》《天龙特攻队》)执导并编写剧本。格里罗将饰演一名退役特种部队老兵,被困在永无止境的死亡循环之中。
  
  Emmett/Furla/Oasis投资,洛伦佐·迪·博纳文图拉(《变形金刚》《生死狙击》)、Mark Vahradian(《赤焰战场》)、兰道尔·艾米特(《第一滴血》《金蝉脱壳》)、 George Furla(《双龙出手》《孤独的幸存者》)联合制片。
Video
ID                                       : 1
Format                                   : AVC
Format/Info                              : Advanced Video Codec
Format profile                           :
Format settings                          : CABAC / 5 Ref Frames
Format settings, CABAC                   : Yes
Format settings, Reference frames        : 5 frames
Codec ID                                 : V_MPEG4/ISO/AVC
Duration                                 : 1 h 40 min
Bit rate                                 : 19.1 Mb/s
Width                                    : 1 920 pixels
Height                                   : 808 pixels
Display aspect ratio                     : 2.40:1
Frame rate mode                          : Constant
Frame rate                               : 23.976 (24000/1001/189150) FPS
Color space                              : YUV
Chroma subsampling                       : 4:2:0
Bit depth                                : 8 bits
Scan type                                : Progressive
Bits/(Pixel*Frame)                       : 0.513
Stream size                              : 13.5 GiB (84%)
Writing library                          : x264 core 161 r3048 b86ae3c
Encoding settings                        : cabac=1 / ref=5 / deblock=1:-3:-3 / analyse=0x3:0x133 / me=umh / subme=9 / psy=1 / psy_rd=1.00:0.00 / mixed_ref=1 / me_range=48 / chroma_me=1 / trellis=2 / 8x8dct=1 / cqm=0 / deadzone=21,11 / fast_pskip=0 / chroma_qp_offset=-2 / threads=25 / lookahead_threads=2 / sliced_threads=0 / nr=0 / decimate=0 / interlaced=0 / bluray_compat=0 / constrained_intra=0 / bframes=3 / b_pyramid=2 / b_adapt=2 / b_bias=0 / direct=3 / weightb=1 / open_gop=0 / weightp=2 / keyint=250 / keyint_min=23 / scenecut=40 / intra_refresh=0 / rc=crf / mbtree=0 / crf=17.0 / qcomp=0.60 / qpmin=0 / qpmax=69 / qpstep=4 / ip_ratio=1.40 / pb_ratio=1.30 / aq=3:0.80
Default                                  : Yes
Forced                                   : No
Color range                              : Limited
Matrix coefficients                      : BT.709

Audio
ID                                       : 2
Format                                   : DTS XLL
Format/Info                              : Digital Theater Systems
Commercial name                          : DTS-HD Master Audio
Codec ID                                 : A_DTS
Duration                                 : 1 h 40 min
Bit rate mode                            : Variable
Bit rate                                 : 3 722 kb/s
Channel(s)                               : 6 channels
Channel layout                           : C L R Ls Rs LFE
Sampling rate                            : 48.0 kHz
Frame rate                               : 93.750 FPS (512 SPF)
Bit depth                                : 24 bits
Compression mode                         : Lossless
Stream size                              : 2.63 GiB (16%)
Title                                    : DTS-HD MA 5.1
Language                                 : English
Default                                  : Yes
Forced                                   : No

Text
ID                                       : 3
Format                                   : PGS
Muxing mode                              : zlib
Codec ID                                 : S_HDMV/PGS
Codec ID/Info                            : Picture based subtitle format used on BDs/HD-DVDs
Duration                                 : 1 h 40 min
Bit rate                                 : 32.5 kb/s
Count of elements                        : 2832
Stream size                              : 23.3 MiB (0%)
Title                                    : French
Language                                 : French
Default                                  : No
Forced                                   : No

Menu
00:00:00.000                             : en:Chapter 01
00:08:12.867                             : en:Chapter 02
00:17:51.320                             : en:Chapter 03
00:26:55.614                             : en:Chapter 04
00:32:42.752                             : en:Chapter 05
00:40:18.416                             : en:Chapter 06
00:48:06.592                             : en:Chapter 07
00:56:50.824                             : en:Chapter 08
01:05:15.120                             : en:Chapter 09
01:13:16.684                             : en:Chapter 10
01:24:11.088                             : en:Chapter 11
01:32:56.321                             : en:Chapter 12
[/url][/url][/url]



                                                                                                                                                                                                        
                                                                                                                                                                                                                                                                                                                                                                                                                                                                                                                                                                                                                                                                                                                                                                                                                                                        
cbb74e3ae31e5980b07a91e2f9cbd79d.zip (81.12 KB, 下载次数: 4)

回复

使用道具 举报

小黑屋|磁力链接吧 |网站地图

本网站所有资源来自网络,如无意中侵犯了您的权益,请发邮件至 [email protected],立即清除相关链接

GMT+8, 2021-4-16 09:36 , Processed in 0.118907 second(s), 22 queries .

Powered by Discuz! X3.2

© 2001-2013 Comsenz Inc.

快速回复 返回顶部 返回列表