磁力链接吧

 找回密码
 立即注册
搜索

超神傳奇 Shadow.Builder.1998.720p.BluRay.x264-GUACAMOLE 4.92GB

[复制链接]
百度云资源 发表于 2021-3-4 10:37:41 | 显示全部楼层 |阅读模式
-->
帖子完整标题:超神傳奇 Shadow.Builder.1998.720p.BluRay.x264-GUACAMOLE 4.92GB


[/url]

◎译  名 超神傳奇
◎片  名 Shadow Builder
◎年  代 1998
◎产  地 美国,加拿大
◎类  别 恐怖
◎语  言 英语
◎上映日期 1998-02-07
◎IMDb评分  4.9/10 from 1389 users
◎  
◎豆瓣评分 /10 from 0 users
◎ 
◎片  长 97分钟
◎导  演 杰米·迪克森 Jamie Dixon
◎编  剧 迈克尔·斯托克斯 Michael Stokes / 布莱姆·斯托克 Bram Stoker
◎主  演 夏洛蒂·苏利文 Charlotte Sullivan
       Nicole Stoffman
       Andrew Sardella
       安德鲁·杰克森 Andrew Jackson
       迈克尔·鲁克 Michael Rooker
       凯萨琳·布吕耶 Catherine Bruhier
       劳伦斯·贝恩 Lawrence Bayne
       史蒂夫·布卢姆 Steve Blum
       马特伯尔曼 Matt Birman
       莱斯利·霍普 Leslie Hope
       凯文·席格斯 Kevin Zegers
       托尼·托德 Tony Todd
       戈登·迈克尔·沃尔维特 Gordon Michael Woolvett
       Shawn Thompson

◎标  签 恐怖+鬼片 | 魔幻 | 记号 | 美国电影 | 美国 | Kevin.Zegers | 11年观 | 115

◎简  介

  When God created light, the first shadow was born.
  
  An evil Archbishop of the Catholic Church summons a demon to try and destroy the world. The summoners are killed, but the demon escapes to hunt down its needed victim. The victim soon turns out to be a child that has the potential to become a saint. After ravaging the town and turning its citizens upon themselves, the demon soon locates and captures his prey.
Video
ID                                       : 1
Format                                   : AVC
Format/Info                              : Advanced Video Codec
Format profile                           :
Format settings                          : CABAC / 8 Ref Frames
Format settings, CABAC                   : Yes
Format settings, Reference frames        : 8 frames
Codec ID                                 : V_MPEG4/ISO/AVC
Duration                                 : 1 h 40 min
Bit rate                                 : 6 543 kb/s
Width                                    : 1 280 pixels
Height                                   : 694 pixels
Display aspect ratio                     : 1.85:1
Frame rate mode                          : Constant
Frame rate                               : 23.976 (24000/1001/189150) FPS
Color space                              : YUV
Chroma subsampling                       : 4:2:0
Bit depth                                : 8 bits
Scan type                                : Progressive
Bits/(Pixel*Frame)                       : 0.307
Stream size                              : 4.60 GiB (94%)
Writing library                          : x264 core 161 r3048 b86ae3c
Encoding settings                        : cabac=1 / ref=8 / deblock=1:-3:-3 / analyse=0x3:0x133 / me=umh / subme=9 / psy=1 / psy_rd=1.00:0.00 / mixed_ref=1 / me_range=16 / chroma_me=1 / trellis=2 / 8x8dct=1 / cqm=0 / deadzone=21,11 / fast_pskip=0 / chroma_qp_offset=-2 / threads=22 / lookahead_threads=1 / sliced_threads=0 / nr=0 / decimate=1 / interlaced=0 / bluray_compat=0 / constrained_intra=0 / bframes=3 / b_pyramid=2 / b_adapt=2 / b_bias=0 / direct=3 / weightb=1 / open_gop=0 / weightp=2 / keyint=250 / keyint_min=23 / scenecut=40 / intra_refresh=0 / rc_lookahead=60 / rc=crf / mbtree=1 / crf=19.0 / qcomp=0.60 / qpmin=0 / qpmax=69 / qpstep=4 / ip_ratio=1.40 / aq=3:0.60
Default                                  : Yes
Forced                                   : No
Color range                              : Limited
Matrix coefficients                      : BT.709

Audio
ID                                       : 2
Format                                   : AC-3
Format/Info                              : Audio Coding 3
Commercial name                          : Dolby Digital
Codec ID                                 : A_AC3
Duration                                 : 1 h 40 min
Bit rate mode                            : Constant
Bit rate                                 : 448 kb/s
Channel(s)                               : 6 channels
Channel layout                           : L R C LFE Ls Rs
Sampling rate                            : 48.0 kHz
Frame rate                               : 31.250 FPS (1536 SPF)
Compression mode                         : Lossy
Stream size                              : 323 MiB (6%)
Language                                 : English
Service kind                             : Complete Main
Default                                  : Yes
Forced                                   : No

Menu
00:00:00.000                             : en:00:00:00.000
00:00:00.375                             : en:00:00:00.375
00:14:53.893                             : en:00:14:53.893
00:29:38.318                             : en:00:29:38.318
00:43:26.521                             : en:00:43:26.521
00:58:54.489                             : en:00:58:54.489
01:13:04.755                             : en:01:13:04.755
01:28:25.759                             : en:01:28:25.759
01:35:23.343                             : en:01:35:23.343
[/url]



                                                                                                                                                                                                        
                                                                                                                                                                                                                                                                                                                                                                                                                                                                                                                                                                                                                                                                                                                                                                                                                                                        
b5f3e576bd151999ebeb92186c211add.zip (49.87 KB, 下载次数: 2)

回复

使用道具 举报

小黑屋|磁力链接吧 |网站地图

本网站所有资源来自网络,如无意中侵犯了您的权益,请发邮件至 [email protected],立即清除相关链接

GMT+8, 2021-4-16 08:17 , Processed in 0.133570 second(s), 22 queries .

Powered by Discuz! X3.2

© 2001-2013 Comsenz Inc.

快速回复 返回顶部 返回列表