磁力链接吧

 找回密码
 立即注册
搜索

致命女郎/蛇蝎美人 Fatale.2020.1080p.BluRay.x264-PiGNUS 15.07GB

[复制链接]
百度云资源 发表于 2021-3-4 10:12:21 | 显示全部楼层 |阅读模式
-->
帖子完整标题:致命女郎/蛇蝎美人 Fatale.2020.1080p.BluRay.x264-PiGNUS 15.07GB


[/url]

◎译  名 致命女郎/蛇蝎美人
◎片  名 Fatale
◎年  代 2020
◎产  地 美国
◎类  别 惊悚
◎语  言 英语
◎上映日期 2020-12-18(美国)
◎IMDb评分  5.2/10 from 3197 users
◎  
◎豆瓣评分 5.2/10 from 259 users
◎ 
◎片  长 102分钟
◎导  演 德翁·泰勒 Deon Taylor
◎编  剧 戴维·朗格利 David Loughery
◎主  演 希拉里·斯万克 Hilary Swank
       迈克尔·伊雷 Michael Ealy
       迈克·柯尔特 Mike Colter
       卡莉·霍克 Kali Hawk
       丹尼·皮诺 Danny Pino
       达马里斯·刘易斯 Damaris Lewis
       萨姆·戴利 Sam Daly
       杰弗里·欧文斯 Geoffrey Owens
       大卫·霍夫林 David Hoflin
       奥克莉·布尔 Oakley Bull
       达拉斯·钱德勒 Dallas Chandler
       泰里恩·特纳 Tyrin Turner
       朱莉安娜·唐纳德 Juliana Donald
       莱克萨·格鲁克 Lexa Gluck
       丹尼丝·道丝 Denise Dowse
       凯瑞·威斯特科特 Kerry Westcott
       Ian Stanley
       Sasha Golberg

◎标  签 悬疑 | 美国 | 犯罪 | 惊悚 | 2020 | 剧情 | 电影 | Netflix

◎简  介

  影片讲述一个成功的体育经纪人达伦(迈克尔·伊雷饰),当他被卷入由一个身份存疑、不知羞耻但行为坚定的侦探(希拉里·斯万克饰)领导的警方调查中,他原本的完美生活渐渐消失……
Video
ID                                       : 1
Format                                   : AVC
Format/Info                              : Advanced Video Codec
Format profile                           :
Format settings                          : CABAC / 5 Ref Frames
Format settings, CABAC                   : Yes
Format settings, Reference frames        : 5 frames
Codec ID                                 : V_MPEG4/ISO/AVC
Duration                                 : 1 h 42 min
Bit rate                                 : 17.2 Mb/s
Width                                    : 1 920 pixels
Height                                   : 804 pixels
Display aspect ratio                     : 2.40:1
Frame rate mode                          : Constant
Frame rate                               : 23.976 (24000/1001/189150) FPS
Color space                              : YUV
Chroma subsampling                       : 4:2:0
Bit depth                                : 8 bits
Scan type                                : Progressive
Bits/(Pixel*Frame)                       : 0.465
Stream size                              : 12.3 GiB (82%)
Writing library                          : x264 core 161 r3048 b86ae3c
Encoding settings                        : cabac=1 / ref=5 / deblock=1:-3:-3 / analyse=0x3:0x133 / me=umh / subme=9 / psy=1 / psy_rd=1.00:0.00 / mixed_ref=1 / me_range=16 / chroma_me=1 / trellis=2 / 8x8dct=1 / cqm=0 / deadzone=21,11 / fast_pskip=1 / chroma_qp_offset=-2 / threads=25 / lookahead_threads=2 / sliced_threads=0 / nr=0 / decimate=1 / interlaced=0 / bluray_compat=0 / constrained_intra=0 / bframes=3 / b_pyramid=2 / b_adapt=2 / b_bias=0 / direct=3 / weightb=1 / open_gop=0 / weightp=2 / keyint=250 / keyint_min=23 / scenecut=40 / intra_refresh=0 / rc_lookahead=60 / rc=crf / mbtree=1 / crf=15.5 / qcomp=0.60 / qpmin=0 / qpmax=69 / qpstep=4 / ip_ratio=1.40 / aq=1:1.00
Default                                  : Yes
Forced                                   : No

Audio #1
ID                                       : 2
Format                                   : DTS XLL
Format/Info                              : Digital Theater Systems
Commercial name                          : DTS-HD Master Audio
Codec ID                                 : A_DTS
Duration                                 : 1 h 42 min
Bit rate mode                            : Variable
Bit rate                                 : 3 662 kb/s
Channel(s)                               : 6 channels
Channel layout                           : C L R Ls Rs LFE
Sampling rate                            : 48.0 kHz
Frame rate                               : 93.750 FPS (512 SPF)
Bit depth                                : 24 bits
Compression mode                         : Lossless
Stream size                              : 2.62 GiB (17%)
Language                                 : English
Default                                  : Yes
Forced                                   : No

Audio #2
ID                                       : 3
Format                                   : AAC LC
Format/Info                              : Advanced Audio Codec Low Complexity
Codec ID                                 : A_AAC-2
Duration                                 : 1 h 42 min
Bit rate                                 : 106 kb/s
Channel(s)                               : 2 channels
Channel layout                           : L R
Sampling rate                            : 48.0 kHz
Frame rate                               : 46.875 FPS (1024 SPF)
Compression mode                         : Lossy
Delay relative to video                  : 9 ms
Stream size                              : 78.1 MiB (1%)
Title                                    : Commentary
Language                                 : English
Default                                  : No
Forced                                   : No

Text #1
ID                                       : 4
Format                                   : PGS
Muxing mode                              : zlib
Codec ID                                 : S_HDMV/PGS
Codec ID/Info                            : Picture based subtitle format used on BDs/HD-DVDs
Duration                                 : 1 h 38 min
Bit rate                                 : 32.8 kb/s
Count of elements                        : 2502
Stream size                              : 23.0 MiB (0%)
Title                                    : English SDH
Language                                 : English
Default                                  : No
Forced                                   : No

Text #2
ID                                       : 5
Format                                   : PGS
Muxing mode                              : zlib
Codec ID                                 : S_HDMV/PGS
Codec ID/Info                            : Picture based subtitle format used on BDs/HD-DVDs
Duration                                 : 1 h 37 min
Bit rate                                 : 24.9 kb/s
Count of elements                        : 1834
Stream size                              : 17.5 MiB (0%)
Title                                    : Spanish
Language                                 : Spanish
Default                                  : No
Forced                                   : No

Text #3
ID                                       : 6
Format                                   : PGS
Muxing mode                              : zlib
Codec ID                                 : S_HDMV/PGS
Codec ID/Info                            : Picture based subtitle format used on BDs/HD-DVDs
Duration                                 : 1 h 37 min
Bit rate                                 : 24.0 kb/s
Count of elements                        : 1992
Stream size                              : 16.8 MiB (0%)
Title                                    : French
Language                                 : French
Default                                  : No
Forced                                   : No

Menu
00:00:00.000                             : en:Chapter 01
00:05:29.746                             : en:Chapter 02
00:12:49.268                             : en:Chapter 03
00:16:23.733                             : en:Chapter 04
00:20:46.787                             : en:Chapter 05
00:29:03.659                             : en:Chapter 06
00:32:24.609                             : en:Chapter 07
00:35:07.605                             : en:Chapter 08
00:40:48.529                             : en:Chapter 09
00:45:42.114                             : en:Chapter 10
00:50:24.730                             : en:Chapter 11
00:57:51.802                             : en:Chapter 12
01:04:54.224                             : en:Chapter 13
01:12:38.020                             : en:Chapter 14
01:21:35.599                             : en:Chapter 15
01:29:41.626                             : en:Chapter 16
01:42:34.940                             : en:Chapter 17
[/url]



                                                                                                                                                                                                        
                                                                                                                                                                                                                                                                                                                                                                                                                                                                                                                                                                                                                                                                                                                                                                                                                                                        
8eee404b9314d3148634ac0ad70a4ec8.zip (76.05 KB, 下载次数: 7)

回复

使用道具 举报

小黑屋|磁力链接吧 |网站地图

本网站所有资源来自网络,如无意中侵犯了您的权益,请发邮件至 [email protected],立即清除相关链接

GMT+8, 2021-4-16 07:25 , Processed in 0.117678 second(s), 22 queries .

Powered by Discuz! X3.2

© 2001-2013 Comsenz Inc.

快速回复 返回顶部 返回列表