磁力链接吧

 找回密码
 立即注册
搜索

半血缘兄弟 Half.Brothers.2020.1080p.BluRay.x264-PiGNUS 9.71GB

[复制链接]
百度云资源 发表于 2021-3-4 10:12:21 | 显示全部楼层 |阅读模式
-->
帖子完整标题:半血缘兄弟 Half.Brothers.2020.1080p.BluRay.x264-PiGNUS 9.71GB


[/url]

◎译  名 半血缘兄弟/Half Brothers
◎片  名 Half Brothers
◎年  代 2020
◎产  地 墨西哥,美国
◎类  别 喜剧
◎语  言 西班牙语
◎上映日期 2020-12-04(美国)
◎IMDb评分  6/10 from 832 users
◎  
◎豆瓣评分 6.0/10 from 159 users
◎ 
◎片  长 96分钟
◎导  演 卢克·格林菲德 Luke Greenfield
◎编  剧 阿利·勒鲁伊 Ali LeRoi / 爱德得·西斯内罗斯 Eduardo Cisneros / 杰森·舒曼 Jason Shuman
◎主  演 路易斯·赫拉尔多·门德斯 Luis Gerardo Méndez
       何塞·祖尼加 José Zú?iga
       康纳·戴尔·里奥 Connor Del Rio
       文森特·斯帕诺 Vincent Spano
       希拉·斯科特·阿斯托夫 Shira Scott Astrof
       哈耶斯·哈格罗夫 Hayes Hargrove
       阿尔玛·西斯内罗斯 Alma Sisneros
       朱万达斯·坎迪斯 Jwaundace Candece
       比阿特丽丝·埃尔南德斯 Beatrice Hernandez
       特蕾莎·德谢尔 Teresa Decher
       曼尼·鲁比奥 Manny Rubio
       斯蒂芬妮·希尔 Stephanie Hill

◎标  签 公路 | 喜剧 | 家庭 | 美国 | 墨西哥 | 搞笑 | 亲情 | 2020

◎简  介

  影片讲述两个同父异母的兄弟揭开垂死父亲的秘密时,他们彼此的关系也受到了考验。
Video
ID                                       : 1
Format                                   : AVC
Format/Info                              : Advanced Video Codec
Format profile                           :
Format settings                          : CABAC / 5 Ref Frames
Format settings, CABAC                   : Yes
Format settings, Reference frames        : 5 frames
Codec ID                                 : V_MPEG4/ISO/AVC
Duration                                 : 1 h 35 min
Bit rate                                 : 11.1 Mb/s
Width                                    : 1 920 pixels
Height                                   : 804 pixels
Display aspect ratio                     : 2.40:1
Frame rate mode                          : Constant
Frame rate                               : 23.976 (24000/1001/189150) FPS
Color space                              : YUV
Chroma subsampling                       : 4:2:0
Bit depth                                : 8 bits
Scan type                                : Progressive
Bits/(Pixel*Frame)                       : 0.301
Stream size                              : 7.46 GiB (77%)
Writing library                          : x264 core 161 r3048 b86ae3c
Encoding settings                        : cabac=1 / ref=5 / deblock=1:-3:-3 / analyse=0x3:0x133 / me=umh / subme=9 / psy=1 / psy_rd=1.00:0.00 / mixed_ref=1 / me_range=16 / chroma_me=1 / trellis=2 / 8x8dct=1 / cqm=0 / deadzone=21,11 / fast_pskip=1 / chroma_qp_offset=-2 / threads=25 / lookahead_threads=2 / sliced_threads=0 / nr=0 / decimate=1 / interlaced=0 / bluray_compat=0 / constrained_intra=0 / bframes=3 / b_pyramid=2 / b_adapt=2 / b_bias=0 / direct=3 / weightb=1 / open_gop=0 / weightp=2 / keyint=250 / keyint_min=23 / scenecut=40 / intra_refresh=0 / rc_lookahead=60 / rc=crf / mbtree=1 / crf=15.5 / qcomp=0.60 / qpmin=0 / qpmax=69 / qpstep=4 / ip_ratio=1.40 / aq=1:1.00
Language                                 : English
Default                                  : Yes
Forced                                   : No

Audio #1
ID                                       : 2
Format                                   : DTS XLL
Format/Info                              : Digital Theater Systems
Commercial name                          : DTS-HD Master Audio
Codec ID                                 : A_DTS
Duration                                 : 1 h 35 min
Bit rate mode                            : Variable
Bit rate                                 : 3 200 kb/s
Channel(s)                               : 6 channels
Channel layout                           : C L R Ls Rs LFE
Sampling rate                            : 48.0 kHz
Frame rate                               : 93.750 FPS (512 SPF)
Bit depth                                : 24 bits
Compression mode                         : Lossless
Stream size                              : 2.15 GiB (22%)
Language                                 : English
Default                                  : Yes
Forced                                   : No

Audio #2
ID                                       : 3
Format                                   : AAC LC
Format/Info                              : Advanced Audio Codec Low Complexity
Codec ID                                 : A_AAC-2
Duration                                 : 1 h 35 min
Bit rate                                 : 98.3 kb/s
Channel(s)                               : 2 channels
Channel layout                           : L R
Sampling rate                            : 48.0 kHz
Frame rate                               : 46.875 FPS (1024 SPF)
Compression mode                         : Lossy
Delay relative to video                  : 9 ms
Stream size                              : 67.5 MiB (1%)
Title                                    : Commentary
Language                                 : English
Default                                  : No
Forced                                   : No

Text #1
ID                                       : 4
Format                                   : PGS
Muxing mode                              : zlib
Codec ID                                 : S_HDMV/PGS
Codec ID/Info                            : Picture based subtitle format used on BDs/HD-DVDs
Duration                                 : 1 h 31 min
Bit rate                                 : 45.2 kb/s
Count of elements                        : 2843
Stream size                              : 29.6 MiB (0%)
Title                                    : English SDH
Language                                 : English
Default                                  : No
Forced                                   : No

Text #2
ID                                       : 5
Format                                   : PGS
Muxing mode                              : zlib
Codec ID                                 : S_HDMV/PGS
Codec ID/Info                            : Picture based subtitle format used on BDs/HD-DVDs
Duration                                 : 1 h 35 min
Bit rate                                 : 34.9 kb/s
Count of elements                        : 2447
Stream size                              : 23.7 MiB (0%)
Title                                    : Spanish
Language                                 : Spanish
Default                                  : No
Forced                                   : No

Text #3
ID                                       : 6
Format                                   : PGS
Muxing mode                              : zlib
Codec ID                                 : S_HDMV/PGS
Codec ID/Info                            : Picture based subtitle format used on BDs/HD-DVDs
Duration                                 : 1 h 35 min
Bit rate                                 : 43.3 kb/s
Count of elements                        : 2851
Stream size                              : 29.5 MiB (0%)
Title                                    : French
Language                                 : French
Default                                  : No
Forced                                   : No

Text #4
ID                                       : 7
Format                                   : PGS
Muxing mode                              : zlib
Codec ID                                 : S_HDMV/PGS
Codec ID/Info                            : Picture based subtitle format used on BDs/HD-DVDs
Duration                                 : 1 h 35 min
Bit rate                                 : 237 b/s
Count of elements                        : 21
Stream size                              : 167 KiB (0%)
Title                                    : Spanish
Language                                 : Spanish
Default                                  : No
Forced                                   : No

Menu
00:00:00.000                             : en:Chapter 01
00:05:47.430                             : en:Chapter 02
00:09:08.548                             : en:Chapter 03
00:13:32.020                             : en:Chapter 04
00:16:08.134                             : en:Chapter 05
00:20:24.098                             : en:Chapter 06
00:24:32.721                             : en:Chapter 07
00:30:16.606                             : en:Chapter 08
00:32:55.056                             : en:Chapter 09
00:40:37.852                             : en:Chapter 10
00:44:17.989                             : en:Chapter 11
00:46:43.843                             : en:Chapter 12
00:53:51.228                             : en:Chapter 13
00:59:59.638                             : en:Chapter 14
01:06:02.625                             : en:Chapter 15
01:10:14.627                             : en:Chapter 16
01:14:45.523                             : en:Chapter 17
01:18:21.155                             : en:Chapter 18
01:25:56.485                             : en:Chapter 19
01:31:21.559                             : en:Chapter 20
01:35:59.337                             : en:Chapter 21
[/url]



                                                                                                                                                                                                        
                                                                                                                                                                                                                                                                                                                                                                                                                                                                                                                                                                                                                                                                                                                                                                                                                                                        
a6fd9ac6243ebe7ce6e72d3c15c43921.zip (49.26 KB, 下载次数: 9)

回复

使用道具 举报

小黑屋|磁力链接吧 |网站地图

本网站所有资源来自网络,如无意中侵犯了您的权益,请发邮件至 [email protected],立即清除相关链接

GMT+8, 2021-4-19 21:20 , Processed in 0.132137 second(s), 22 queries .

Powered by Discuz! X3.2

© 2001-2013 Comsenz Inc.

快速回复 返回顶部 返回列表