磁力链接吧

 找回密码
 立即注册
搜索

范妮·莱的解救 Fanny.Lye.Deliverd.2019.720p.BluRay.x264-GUACAMOLE 2.96GB

[复制链接]
百度云资源 发表于 2021-3-3 10:11:39 | 显示全部楼层 |阅读模式
-->
帖子完整标题:范妮·莱的解救 Fanny.Lye.Deliverd.2019.720p.BluRay.x264-GUACAMOLE 2.96GB


[/url]

◎译  名 范妮·莱的解救/The Delivered/范妮·莱德
◎片  名 Fanny Lye Deliver'd
◎年  代 2019
◎产  地 英国,德国
◎类  别 剧情 / 惊悚 / 历史
◎语  言 英语
◎上映日期 2019-10-10(伦敦电影节) / 2020-06-26(英国)
◎IMDb评分  6.2/10 from 772 users
◎  
◎豆瓣评分 6.4/10 from 104 users
◎ 
◎片  长 112分钟
◎导  演 托马斯·克雷 Thomas Clay
◎编  剧 托马斯·克雷 Thomas Clay
◎主  演 玛克辛·皮克 Maxine Peake
       查尔斯·丹斯 Charles Dance
       弗莱迪·福克斯 Freddie Fox
       塔尼娅·雷诺兹 Tanya Reynolds
       彼得·麦克唐纳德 Peter McDonald
       佩里·菲茨帕特里克 Perry Fitzpatrick
       肯尼斯·克拉德 Kenneth Collard

◎标  签 英国 | 2019 | 2019伦敦电影节 | 名著改编 | FreddieFox | 英國電影 | UK | 历史

◎简  介

  Shooting has wrapped on Fanny Lye Deliver’d, a period drama starring Maxine Peake (The Theory of Everything), Charles Dance (Game of Thrones) and Freddie Fox (The Riot Club). The cast also includes Tanya Reynolds in her first feature film role and Peter McDonald (The Stag).
  
  Shot over ten weeks on location in Shropshire, England, the film is written and directed by Thomas Clay and produced by Zorana Piggott (Couple In A Hole), Rob Cannan (The Lovers and the Despot) and Philippe Bober. The late Joseph Lang, Clay’s long-time producer, receives a posthumous producing credit.
  
  Set in 1657 on an isolated farm in Shropshire, the story follows Fanny Lye (Peake) as she learns to transcend her oppressive marriage and discovers a new world of possibility.
  
  Living a life of puritan stricture with husband John Lye (Dance) and young son Arthur, Fanny Lye’s world is shaken by the unexpected arrival of two strangers in need - a young couple (Fox, Reynolds) closely pursued by a ruthless sheriff (McDonald) and his deputy.
  
  “Fanny Lye Deliver’d is a unique and compelling historical drama, closer in spirit to a western, or a modern thriller, than a traditional English period piece”, said producer Piggott.
  
  “First and foremost it is a gripping story, a simple, exciting narrative brought to life with incredibly powerful and compelling performances and Thomas’ unique vision.”
  
  It marks Clay’s third feature film. His debut, The Great Ecstasy of Robert Carmichael, screened at Cannes’ Critics’ Week in 2005 while his follow-up, Soi Cowboy, shot on location in Thailand, premiered at Cannes in Un Certain Regard in 2008.
  
  A Pull Back Camera production in co-production with Essential Filmproduktion (Germany), Fanny Lye Deliver’d is funded by the BFI, Creative England and the West Midlands Production Fund with support from Filmstiftung NRW, Medienboard Berlin Brandenburg and ZDF.
  
  Coproduction Office is handling world sales.

◎获奖情况

  第49届鹿特丹国际电影节 ?(2020)
  大银幕奖(提名) 托马斯·克雷
Video
ID                                       : 1
Format                                   : AVC
Format/Info                              : Advanced Video Codec
Format profile                           :
Format settings                          : CABAC / 8 Ref Frames
Format settings, CABAC                   : Yes
Format settings, Reference frames        : 8 frames
Codec ID                                 : V_MPEG4/ISO/AVC
Duration                                 : 1 h 49 min
Bit rate                                 : 3 202 kb/s
Width                                    : 1 280 pixels
Height                                   : 538 pixels
Display aspect ratio                     : 2.40:1
Frame rate mode                          : Constant
Frame rate                               : 23.976 (24000/1001/189150) FPS
Color space                              : YUV
Chroma subsampling                       : 4:2:0
Bit depth                                : 8 bits
Scan type                                : Progressive
Bits/(Pixel*Frame)                       : 0.194
Stream size                              : 2.46 GiB (83%)
Writing library                          : x264 core 161 r3048 b86ae3c
Encoding settings                        : cabac=1 / ref=8 / deblock=1:-3:-3 / analyse=0x3:0x133 / me=umh / subme=9 / psy=1 / psy_rd=1.00:0.00 / mixed_ref=1 / me_range=16 / chroma_me=1 / trellis=2 / 8x8dct=1 / cqm=0 / deadzone=21,11 / fast_pskip=0 / chroma_qp_offset=-2 / threads=17 / lookahead_threads=1 / sliced_threads=0 / nr=0 / decimate=1 / interlaced=0 / bluray_compat=0 / constrained_intra=0 / bframes=3 / b_pyramid=2 / b_adapt=2 / b_bias=0 / direct=3 / weightb=1 / open_gop=0 / weightp=2 / keyint=250 / keyint_min=23 / scenecut=40 / intra_refresh=0 / rc_lookahead=60 / rc=crf / mbtree=1 / crf=20.5 / qcomp=0.60 / qpmin=0 / qpmax=69 / qpstep=4 / ip_ratio=1.40 / aq=3:1.00
Default                                  : Yes
Forced                                   : No
Color range                              : Limited
Matrix coefficients                      : BT.709

Audio
ID                                       : 2
Format                                   : AC-3
Format/Info                              : Audio Coding 3
Commercial name                          : Dolby Digital
Codec ID                                 : A_AC3
Duration                                 : 1 h 49 min
Bit rate mode                            : Constant
Bit rate                                 : 640 kb/s
Channel(s)                               : 6 channels
Channel layout                           : L R C LFE Ls Rs
Sampling rate                            : 48.0 kHz
Frame rate                               : 31.250 FPS (1536 SPF)
Compression mode                         : Lossy
Stream size                              : 503 MiB (17%)
Language                                 : English
Service kind                             : Complete Main
Default                                  : Yes
Forced                                   : No

Text #1
ID                                       : 3
Format                                   : PGS
Muxing mode                              : zlib
Codec ID                                 : S_HDMV/PGS
Codec ID/Info                            : Picture based subtitle format used on BDs/HD-DVDs
Duration                                 : 1 h 49 min
Bit rate                                 : 26.5 kb/s
Count of elements                        : 2136
Stream size                              : 20.7 MiB (1%)
Title                                    : Vobsubs
Language                                 : German
Default                                  : No
Forced                                   : No

Text #2
ID                                       : 4
Format                                   : PGS
Muxing mode                              : zlib
Codec ID                                 : S_HDMV/PGS
Codec ID/Info                            : Picture based subtitle format used on BDs/HD-DVDs
Duration                                 : 1 h 48 min
Bit rate                                 : 81 b/s
Count of elements                        : 10
Stream size                              : 64.2 KiB (0%)
Title                                    : Forced
Language                                 : German
Default                                  : No
Forced                                   : No

Menu
00:00:00.000                             : en:00:00:00.000
00:09:09.799                             : en:00:09:09.799
00:18:30.067                             : en:00:18:30.067
00:27:38.532                             : en:00:27:38.532
00:36:07.332                             : en:00:36:07.332
00:47:57.708                             : en:00:47:57.708
00:55:24.446                             : en:00:55:24.446
01:05:45.275                             : en:01:05:45.275
01:13:22.023                             : en:01:13:22.023
01:21:49.947                             : en:01:21:49.947
01:28:12.287                             : en:01:28:12.287
01:35:13.291                             : en:01:35:13.291
01:43:53.894                             : en:01:43:53.894
[/url]



                                                                                                                                                                                                        
                                                                                                                                                                                                                                                                                                                                                                                                                                                                                                                                                                                                                                                                                                                                                                                                                                                        
7348b6a035800afc77d129cf9ebb8dc8.zip (30.32 KB, 下载次数: 6)

回复

使用道具 举报

小黑屋|磁力链接吧 |网站地图

本网站所有资源来自网络,如无意中侵犯了您的权益,请发邮件至 [email protected],立即清除相关链接

GMT+8, 2021-4-16 08:05 , Processed in 0.183989 second(s), 22 queries .

Powered by Discuz! X3.2

© 2001-2013 Comsenz Inc.

快速回复 返回顶部 返回列表