磁力链接吧

 找回密码
 立即注册
搜索

工业事故:记录蜡碟的故事 Industrial.Accident.The.Story.of.Wax.Trax....

[复制链接]
百度云资源 发表于 2021-3-3 09:51:25 | 显示全部楼层 |阅读模式
-->
帖子完整标题:工业事故:记录蜡碟的故事 Industrial.Accident.The.Story.of.Wax.Trax.Records.2018.1080p.BluRay.x264.DD5.1-HANDJOB 7.97GB


[/url]

◎译  名 工业事故:记录蜡碟的故事
◎片  名 Industrial Accident: The Story of Wax Trax! Records
◎年  代 2018
◎产  地 美国
◎类  别 纪录片 / 音乐
◎语  言 英语
◎上映日期 2018-04-16(美国)
◎IMDb评分  7.9/10 from 156 users
◎  
◎豆瓣评分 /10 from 0 users
◎ 
◎片  长 90分钟
◎主  演 特伦特·雷诺 Trent Reznor

◎标  签 音乐 | 纪录片 | Documentary | 2010s | 美国 | Pop.Culture | Music | 2018

◎简  介

  The true story of punks, queers & criminals on a ride with two men who accidentally changed music along the way.
Video
ID                                       : 1
Format                                   : AVC
Format/Info                              : Advanced Video Codec
Format profile                           :
Format settings                          : CABAC / 4 Ref Frames
Format settings, CABAC                   : Yes
Format settings, Reference frames        : 4 frames
Codec ID                                 : V_MPEG4/ISO/AVC
Duration                                 : 1 h 34 min
Bit rate                                 : 11.6 Mb/s
Width                                    : 1 920 pixels
Height                                   : 1 080 pixels
Display aspect ratio                     : 16:9
Frame rate mode                          : Constant
Frame rate                               : 23.976 (24000/1001/189150) FPS
Color space                              : YUV
Chroma subsampling                       : 4:2:0
Bit depth                                : 8 bits
Scan type                                : Progressive
Bits/(Pixel*Frame)                       : 0.233
Stream size                              : 7.67 GiB (96%)
Writing library                          : x264 core 157 r2935 545de2f
Encoding settings                        : cabac=1 / ref=4 / deblock=1:-3:-3 / analyse=0x3:0x133 / me=umh / subme=10 / psy=1 / psy_rd=1.00:0.00 / mixed_ref=1 / me_range=32 / chroma_me=1 / trellis=2 / 8x8dct=1 / cqm=0 / deadzone=21,11 / fast_pskip=0 / chroma_qp_offset=-2 / threads=24 / lookahead_threads=6 / sliced_threads=0 / nr=0 / decimate=0 / interlaced=0 / bluray_compat=0 / constrained_intra=0 / bframes=16 / b_pyramid=2 / b_adapt=2 / b_bias=0 / direct=3 / weightb=1 / open_gop=0 / weightp=2 / keyint=240 / keyint_min=24 / scenecut=40 / intra_refresh=0 / rc_lookahead=60 / rc=crf / mbtree=0 / crf=19.0 / qcomp=0.60 / qpmin=0 / qpmax=69 / qpstep=4 / vbv_maxrate=62500 / vbv_bufsize=78125 / crf_max=0.0 / nal_hrd=none / filler=0 / ip_ratio=1.40 / pb_ratio=1.30 / aq=2:1.00
Language                                 : English
Default                                  : Yes
Forced                                   : No
Color range                              : Limited
Color primaries                          : BT.709
Transfer characteristics                 : BT.709
Matrix coefficients                      : BT.709

Audio
ID                                       : 2
Format                                   : AC-3
Format/Info                              : Audio Coding 3
Commercial name                          : Dolby Digital
Codec ID                                 : A_AC3
Duration                                 : 1 h 34 min
Bit rate mode                            : Constant
Bit rate                                 : 448 kb/s
Channel(s)                               : 6 channels
Channel layout                           : L R C LFE Ls Rs
Sampling rate                            : 48.0 kHz
Frame rate                               : 31.250 FPS (1536 SPF)
Compression mode                         : Lossy
Stream size                              : 303 MiB (4%)
Language                                 : English
Service kind                             : Complete Main
Default                                  : Yes
Forced                                   : No

Menu
00:00:00.000                             : :Opening
00:02:48.960                             : :Early Years
00:18:38.993                             : :Chicago Store
00:37:07.392                             : abel & Artist Part 1
00:56:49.781                             : abel & Artist Part 2
01:15:07.336                             : ater Years
[/url][/url][/url]



                                                                                                                                                                                                        
                                                                                                                                                                                                                                                                                                                                                                                                                                                                                                                                                                                                                                                                                                                                                                                                                                                        
6aead78d70a4631bdba316824880ffe5.zip (40.6 KB, 下载次数: 17)

回复

使用道具 举报

小黑屋|磁力链接吧 |网站地图

本网站所有资源来自网络,如无意中侵犯了您的权益,请发邮件至 [email protected],立即清除相关链接

GMT+8, 2021-4-20 08:30 , Processed in 0.093836 second(s), 22 queries .

Powered by Discuz! X3.2

© 2001-2013 Comsenz Inc.

快速回复 返回顶部 返回列表