磁力链接吧

 找回密码
 立即注册
搜索

马丁·路德·金与联邦调查局 MLK.FBI.2020.1080p.BluRay.x264-SCARE 12.98GB ... ...

[复制链接]
百度云资源 发表于 2021-3-3 09:51:25 | 显示全部楼层 |阅读模式
-->
帖子完整标题:马丁·路德·金与联邦调查局 MLK.FBI.2020.1080p.BluRay.x264-SCARE 12.98GB




◎译  名 马丁·路德·金与联邦调查局
◎片  名 MLK/FBI
◎年  代 2020
◎产  地 美国
◎类  别 纪录片
◎语  言 英语
◎上映日期 2020-09-15(多伦多电影节)
◎IMDb评分  6.9/10 from 574 users
◎  https://www.imdb.com/title/tt12801356/
◎豆瓣评分 /10 from 0 users
◎ 
◎片  长 104分钟
◎主  演 马丁·路德·金 Martin Luther King

◎标  签 纪录片 | 美国 | 馬丁路德金 | 电影 | 政治 | 2021期待 | 2020s | 2020

◎简  介

  暂无相关剧情介绍

◎获奖情况

  第45届多伦多国际电影节 ?(2020)
  观众选择奖纪录片单元(提名)
  
  第25届金卫星奖 ?(2021)
  电影部门最佳纪录片(提名)
Video
ID                                       : 1
Format                                   : AVC
Format/Info                              : Advanced Video Codec
Format profile                           : [email protected]
Format settings                          : CABAC / 4 Ref Frames
Format settings, CABAC                   : Yes
Format settings, Reference frames        : 4 frames
Codec ID                                 : V_MPEG4/ISO/AVC
Duration                                 : 1 h 46 min
Bit rate                                 : 15.6 Mb/s
Width                                    : 1 920 pixels
Height                                   : 1 014 pixels
Display aspect ratio                     : 1.893
Frame rate mode                          : Constant
Frame rate                               : 23.976 (24000/1001/189150) FPS
Color space                              : YUV
Chroma subsampling                       : 4:2:0
Bit depth                                : 8 bits
Scan type                                : Progressive
Bits/(Pixel*Frame)                       : 0.335
Stream size                              : 11.6 GiB (89%)
Writing library                          : x264 core 161 r3043 59c0609
Encoding settings                        : cabac=1 / ref=4 / deblock=1:-3:-3 / analyse=0x3:0x133 / me=umh / subme=10 / psy=1 / psy_rd=1.20:0.00 / mixed_ref=1 / me_range=24 / chroma_me=1 / trellis=2 / 8x8dct=1 / cqm=0 / deadzone=21,11 / fast_pskip=0 / chroma_qp_offset=-2 / threads=24 / lookahead_threads=4 / sliced_threads=0 / nr=0 / decimate=0 / interlaced=0 / bluray_compat=0 / constrained_intra=0 / bframes=8 / b_pyramid=2 / b_adapt=2 / b_bias=0 / direct=3 / weightb=1 / open_gop=0 / weightp=2 / keyint=250 / keyint_min=23 / scenecut=40 / intra_refresh=0 / rc_lookahead=60 / rc=crf / mbtree=1 / crf=17.5 / qcomp=0.60 / qpmin=0 / qpmax=69 / qpstep=4 / ip_ratio=1.40 / aq=3:0.90
Default                                  : Yes
Forced                                   : No
Color range                              : Limited
Matrix coefficients                      : BT.709

Audio
ID                                       : 2
Format                                   : DTS XLL
Format/Info                              : Digital Theater Systems
Commercial name                          : DTS-HD Master Audio
Codec ID                                 : A_DTS
Duration                                 : 1 h 46 min
Bit rate mode                            : Variable
Bit rate                                 : 1 846 kb/s
Channel(s)                               : 6 channels
Channel layout                           : C L R Ls Rs LFE
Sampling rate                            : 48.0 kHz
Frame rate                               : 93.750 FPS (512 SPF)
Bit depth                                : 16 bits
Compression mode                         : Lossless
Stream size                              : 1.37 GiB (11%)
Language                                 : English
Default                                  : Yes
Forced                                   : No

Text
ID                                       : 3
Format                                   : PGS
Muxing mode                              : zlib
Codec ID                                 : S_HDMV/PGS
Codec ID/Info                            : Picture based subtitle format used on BDs/HD-DVDs
Duration                                 : 1 h 42 min
Bit rate                                 : 55.5 kb/s
Count of elements                        : 3366
Stream size                              : 40.8 MiB (0%)
Title                                    : SDH
Language                                 : English
Default                                  : No
Forced                                   : No

Menu
00:00:00.000                             : en:Chapter 01
00:06:12.747                             : en:Chapter 02
00:14:31.579                             : en:Chapter 03
00:20:46.745                             : en:Chapter 04
00:31:26.093                             : en:Chapter 05
00:42:49.776                             : en:Chapter 06
00:55:15.687                             : en:Chapter 07
01:05:04.234                             : en:Chapter 08
01:13:36.495                             : en:Chapter 09
01:24:13.966                             : en:Chapter 10
01:31:01.956                             : en:Chapter 11
01:37:42.023                             : en:Chapter 12




                                                                                                                                                                                                        
                                                                                                                                                                                                                                                                                                                                                                                                                                                                                                                                                                                                                                                                                                                                                                                                                                                        
59328259b598fb5574fc9728b4fad28a.zip (65.59 KB, 下载次数: 16)

回复

使用道具 举报

小黑屋|磁力链接吧 |网站地图

本网站所有资源来自网络,如无意中侵犯了您的权益,请发邮件至 [email protected],立即清除相关链接

GMT+8, 2021-4-16 07:22 , Processed in 0.201093 second(s), 22 queries .

Powered by Discuz! X3.2

© 2001-2013 Comsenz Inc.

快速回复 返回顶部 返回列表