磁力链接吧

 找回密码
 立即注册
搜索

[BD-4K] 狼行者 Wolfwalkers.2020.2160p.ATVP.WEB-DL.DDP5.1.Atmos.DV.x265-iKA 16.04GB

[复制链接]
百度云资源 发表于 2021-3-1 16:26:06 | 显示全部楼层 |阅读模式
-->
帖子完整标题:狼行者 Wolfwalkers.2020.2160p.ATVP.WEB-DL.DDP5.1.Atmos.DV.x265-iKA 16.04GB


[/url]

◎译  名 狼行者/Le Peuple Loup
◎片  名 Wolfwalkers
◎年  代 2020
◎产  地 爱尔兰,卢森堡,法国,丹麦,美国,英国
◎类  别 动画 / 奇幻 / 冒险
◎语  言 英语
◎上映日期 2020-09-12(多伦多电影节) / 2020-12-11(美国)
◎IMDb评分  8.1/10 from 14015 users
◎  
◎豆瓣评分 8.0/10 from 5747 users
◎ 
◎片  长 100分钟
◎导  演 汤姆·摩尔 Tomm Moore / 罗斯·斯图尔特 Ross Stewart
◎编  剧 威尔·柯林斯 Will Collins / 汤姆·摩尔 Tomm Moore / 罗斯·斯图尔特 Ross Stewart
◎主  演 肖恩·宾 Sean Bean
       霍纳·妮芙茜 Honor Kneafsey
       伊娃·惠塔克 Eva Whittaker
       西蒙·迈克伯尼 Simon McBurney
       汤米·蒂尔南 Tommy Tiernan
       玛丽亚·多耶·肯尼迪 Maria Doyle Kennedy
       乔·肯尼 Jon Kenny
       约翰·莫顿 John Morton
       诺拉·托梅 Nora Twomey
       保罗·杨 Paul Young
       奥利弗·麦克格拉斯 Oliver McGrath

◎标  签 动画 | 爱尔兰 | 奇幻 | 动画电影 | 爱尔兰动画 | 魔幻 | 汤姆·摩尔 | 海洋之歌

◎简  介

  讲述了11岁女孩罗芬的神奇经历。罗芬作为一个年轻的学徒猎人,她和父亲一起来到爱尔兰,准备消灭最后一批在那里的狼,但是改变她的事情来了,她发现了狼行者,此后一连串的古怪故事就发生了……

◎获奖情况

  第78届金球奖 ?(2021)
  电影类最佳动画长片(提名)
  
  第25届美国艺术指导工会奖 ?(2021)
  电影奖最佳动画电影艺术指导(提名) 罗斯·斯图尔特?/?汤姆·摩尔?/?玛丽亚·帕雷贾
  
  第86届纽约影评人协会奖 ?(2020)
  最佳动画片
  
  第92届美国国家评论协会奖 ?(2020)
  十佳独立电影
  
  第30届哥谭独立电影奖 ?(2020)
  最佳国际影片(提名)
  
  第25届金卫星奖 ?(2021)
  电影部门最佳动画片(提名)
  
  第41届伦敦影评人协会奖 ?(2021)
  技术成就奖(提名) 罗斯·斯图尔特?/?汤姆·摩尔
  
  第41届波士顿影评人协会奖 ?(2020)
  最佳动画片(提名)
  
  第46届洛杉矶影评人协会奖 ?(2020)
  最佳动画片
  
  第33届芝加哥影评人协会奖 ?(2020)
  最佳动画片
  
  第5届亚特兰大影评人协会奖 ?(2020)
  最佳动画片(提名)
  
  第24届美国在线影评人协会奖 ?(2021)
  最佳动画片(提名)
Video
ID                                       : 1
Format                                   : HEVC
Format/Info                              : High Efficiency Video Coding
Format profile                           : Main @High
HDR format                               : Dolby Vision, Version 1.0, dvhe.05.06, BL+RPU
Codec ID                                 : dvhe
Codec ID/Info                            : High Efficiency Video Coding with Dolby Vision
Duration                                 : 1 h 42 min
Bit rate                                 : 21.6 Mb/s
Width                                    : 3 840 pixels
Height                                   : 2 080 pixels
Original height                          : 2 076 pixels
Display aspect ratio                     : 1.85:1
Original display aspect ratio            : 1.85:1
Frame rate mode                          : Constant
Frame rate                               : 23.976 (24000/1001/189150) FPS
Color space                              : YUV
Chroma subsampling                       : 4:2:0
Bit depth                                : 10 bits
Bits/(Pixel*Frame)                       : 0.113
Stream size                              : 15.5 GiB (97%)
Default                                  : Yes
Alternate group                          : 1
Codec configuration box                  : hvcC+dvcC

Audio
ID                                       : 2
Format                                   : E-AC-3 JOC
Format/Info                              : Enhanced AC-3 with Joint Object Coding
Commercial name                          : Dolby Digital Plus with Dolby Atmos
Codec ID                                 : ec-3
Duration                                 : 1 h 42 min
Bit rate mode                            : Constant
Bit rate                                 : 768 kb/s
Maximum bit rate                         : 811 kb/s
Channel(s)                               : 6 channels
Channel layout                           : L R C LFE Ls Rs
Sampling rate                            : 48.0 kHz
Frame rate                               : 31.250 FPS (1536 SPF)
Compression mode                         : Lossy
Stream size                              : 563 MiB (3%)
Language                                 : English
Service kind                             : Complete Main
Default                                  : Yes
Alternate group                          : 2
Complexity index                         : Not present / 16
Number of dynamic objects                : 15
Bed channel count                        : 1 channel
Bed channel configuration                : LFE

Text #1
ID                                       : 3
Format                                   : Timed Text
Codec ID                                 : tx3g
Duration                                 : 1 h 42 min
Bit rate mode                            : Variable
Bit rate                                 : 46 b/s
Stream size                              : 34.5 KiB (0%)
Title                                    : Fran?ais
Language                                 : French
Forced                                   : No

Text #2
ID                                       : 4
Format                                   : Timed Text
Codec ID                                 : tx3g
Duration                                 : 1 h 42 min
Bit rate mode                            : Variable
Bit rate                                 : 57 b/s
Stream size                              : 43.0 KiB (0%)
Title                                    : Italiano
Language                                 : Italian
Forced                                   : No

Text #3
ID                                       : 5
Format                                   : Timed Text
Codec ID                                 : tx3g
Duration                                 : 1 h 42 min
Bit rate mode                            : Variable
Bit rate                                 : 51 b/s
Stream size                              : 38.2 KiB (0%)
Title                                    : Dansk
Language                                 : Danish
Forced                                   : No

Text #4
ID                                       : 6
Format                                   : Timed Text
Codec ID                                 : tx3g
Duration                                 : 1 h 42 min
Bit rate mode                            : Variable
Bit rate                                 : 53 b/s
Stream size                              : 39.6 KiB (0%)
Title                                    : German
Language                                 : German
Forced                                   : No

Text #5
ID                                       : 7
Format                                   : Timed Text
Codec ID                                 : tx3g
Duration                                 : 1 h 42 min
Bit rate mode                            : Variable
Bit rate                                 : 50 b/s
Stream size                              : 37.5 KiB (0%)
Title                                    : Espa?ol (Latinoamericano)
Language                                 : Spanish
Forced                                   : No

Text #6
ID                                       : 8
Format                                   : Timed Text
Codec ID                                 : tx3g
Duration                                 : 1 h 42 min
Bit rate mode                            : Variable
Bit rate                                 : 50 b/s
Stream size                              : 37.2 KiB (0%)
Title                                    : Espa?ol
Language                                 : Spanish
Forced                                   : No

Text #7
ID                                       : 9
Format                                   : Timed Text
Codec ID                                 : tx3g
Duration                                 : 1 h 42 min
Bit rate mode                            : Variable
Bit rate                                 : 48 b/s
Stream size                              : 36.0 KiB (0%)
Title                                    : Nederlands
Language                                 : Dutch
Forced                                   : No

Text #8
ID                                       : 10
Format                                   : Timed Text
Codec ID                                 : tx3g
Duration                                 : 1 h 42 min
Bit rate mode                            : Variable
Bit rate                                 : 49 b/s
Stream size                              : 36.7 KiB (0%)
Title                                    : Suomi
Language                                 : Finnish
Forced                                   : No

Text #9
ID                                       : 11
Format                                   : Timed Text
Codec ID                                 : tx3g
Duration                                 : 1 h 42 min
Bit rate mode                            : Variable
Bit rate                                 : 47 b/s
Stream size                              : 35.3 KiB (0%)
Title                                    : Norsk
Language                                 : Norwegian
Forced                                   : No

Text #10
ID                                       : 12
Format                                   : Timed Text
Codec ID                                 : tx3g
Duration                                 : 1 h 42 min
Bit rate mode                            : Variable
Bit rate                                 : 46 b/s
Stream size                              : 34.5 KiB (0%)
Title                                    : Fran?ais (Canadien)
Language                                 : French
Forced                                   : No

Text #11
ID                                       : 13
Format                                   : Timed Text
Codec ID                                 : tx3g
Duration                                 : 1 h 42 min
Bit rate mode                            : Variable
Bit rate                                 : 51 b/s
Stream size                              : 37.9 KiB (0%)
Title                                    : Português (Brasil)
Language                                 : Portuguese
Forced                                   : No

Text #12
ID                                       : 14
Format                                   : Timed Text
Codec ID                                 : tx3g
Duration                                 : 1 h 42 min
Bit rate mode                            : Variable
Bit rate                                 : 46 b/s
Stream size                              : 34.5 KiB (0%)
Title                                    : Português
Language                                 : Portuguese
Forced                                   : No

Text #13
ID                                       : 15
Format                                   : Timed Text
Codec ID                                 : tx3g
Duration                                 : 1 h 42 min
Bit rate mode                            : Variable
Bit rate                                 : 51 b/s
Stream size                              : 38.5 KiB (0%)
Title                                    : Svenska
Language                                 : Swedish
Forced                                   : No

Text #14
ID                                       : 16
Format                                   : Timed Text
Codec ID                                 : tx3g
Duration                                 : 1 h 38 min
Bit rate mode                            : Variable
Bit rate                                 : 74 b/s
Stream size                              : 52.9 KiB (0%)
Title                                    : English (SDH)
Language                                 : English
Forced                                   : No




                                                                                                                                                                                                        
                                                                                                                                                                                                                                                                                                                                                                                                                                                                                                                                                                                                                                                                                                                                                                                                                                                        
3989e5d41ae5353ddc7ae145eaffc382.zip (80.89 KB, 下载次数: 6)

回复

使用道具 举报

小黑屋|磁力链接吧 |网站地图

本网站所有资源来自网络,如无意中侵犯了您的权益,请发邮件至 [email protected],立即清除相关链接

GMT+8, 2021-4-20 09:28 , Processed in 0.109001 second(s), 22 queries .

Powered by Discuz! X3.2

© 2001-2013 Comsenz Inc.

快速回复 返回顶部 返回列表