磁力链接吧

 找回密码
 立即注册
搜索

[BD-4K] 触礁/岩石上 On.the.Rocks.2020.2160p.ATVP.WEB-DL.DDP5.1.Atmos.DV.x265-iKA...

[复制链接]
百度云资源 发表于 2021-3-1 16:26:06 | 显示全部楼层 |阅读模式
-->
帖子完整标题:触礁/岩石上 On.the.Rocks.2020.2160p.ATVP.WEB-DL.DDP5.1.Atmos.DV.x265-iKA 16.77GB


[/url]

◎译  名 触礁/岩石上
◎片  名 On the Rocks
◎年  代 2020
◎产  地 美国
◎类  别 剧情 / 喜剧 / 冒险
◎语  言 英语
◎上映日期 2020-09-22(纽约电影节) / 2020-10-23(美国)
◎IMDb评分  6.5/10 from 22355 users
◎  
◎豆瓣评分 6.6/10 from 2388 users
◎ 
◎片  长 97分钟
◎导  演 索菲亚·科波拉 Sofia Coppola
◎编  剧 索菲亚·科波拉 Sofia Coppola
◎主  演 比尔·默瑞 Bill Murray
       拉什达·琼斯 Rashida Jones
       马龙·韦恩斯 Marlon Wayans
       珍妮·斯蕾特 Jenny Slate
       杰西卡·亨维克 Jessica Henwick
       芭芭拉·贝恩 Barbara Bain
       纳迪雅·达珍妮 Nadia Dajani
       朱尔斯·威尔科克斯 Jules Willcox
       娜缇娅·蒂恩 Natia Dune
       桃乐丝·麦卡锡 Doris McCarthy
       南希·欧泽力 Nancy Ozelli
       Mike Keller

◎标  签 美国 | 索菲亚·科波拉 | 2020 | 喜剧 | 剧情 | SofiaCoppola | BillMurray | 美国电影

◎简  介

  索菲亚·科波拉将执导新片《触礁》(On the Rocks),比尔·莫瑞、拉什达·琼斯主演,这将是苹果和A24合作的第一部电影,下月开拍。
  
  剧本由科波拉编写,讲述一个年轻妈妈和她有英雄色彩的父亲重新联系,在纽约展开一段冒险。

◎获奖情况

  第78届金球奖 ?(2021)
  电影类最佳男配角(提名) 比尔·默瑞
  
  第25届金卫星奖 ?(2021)
  电影部门最佳喜剧/音乐片(提名)
  电影部门喜剧/音乐片最佳女主角(提名) 拉什达·琼斯
  电影部门最佳男配角(提名) 比尔·默瑞
  
  第33届芝加哥影评人协会奖 ?(2020)
  最佳男配角(提名) 比尔·默瑞
  
  第24届美国在线影评人协会奖 ?(2021)
  最佳男配角(提名) 比尔·默瑞
Video
ID                                       : 1
Format                                   : HEVC
Format/Info                              : High Efficiency Video Coding
Format profile                           : Main @High
HDR format                               : Dolby Vision, Version 1.0, dvhe.05.06, BL+RPU
Codec ID                                 : dvhe
Codec ID/Info                            : High Efficiency Video Coding with Dolby Vision
Duration                                 : 1 h 36 min
Bit rate                                 : 24.0 Mb/s
Width                                    : 3 840 pixels
Height                                   : 2 080 pixels
Original height                          : 2 076 pixels
Display aspect ratio                     : 1.85:1
Original display aspect ratio            : 1.85:1
Frame rate mode                          : Constant
Frame rate                               : 23.976 (24000/1001/189150) FPS
Color space                              : YUV
Chroma subsampling                       : 4:2:0
Bit depth                                : 10 bits
Bits/(Pixel*Frame)                       : 0.125
Stream size                              : 16.2 GiB (97%)
Default                                  : Yes
Alternate group                          : 1
Codec configuration box                  : hvcC+dvcC

Audio
ID                                       : 2
Format                                   : E-AC-3 JOC
Format/Info                              : Enhanced AC-3 with Joint Object Coding
Commercial name                          : Dolby Digital Plus with Dolby Atmos
Codec ID                                 : ec-3
Duration                                 : 1 h 36 min
Bit rate mode                            : Constant
Bit rate                                 : 768 kb/s
Maximum bit rate                         : 811 kb/s
Channel(s)                               : 6 channels
Channel layout                           : L R C LFE Ls Rs
Sampling rate                            : 48.0 kHz
Frame rate                               : 31.250 FPS (1536 SPF)
Compression mode                         : Lossy
Stream size                              : 532 MiB (3%)
Language                                 : English
Service kind                             : Complete Main
Default                                  : Yes
Alternate group                          : 2
Complexity index                         : Not present / 16
Number of dynamic objects                : 15
Bed channel count                        : 1 channel
Bed channel configuration                : LFE

Text #1
ID                                       : 3
Format                                   : Timed Text
Codec ID                                 : tx3g
Duration                                 : 1 h 36 min
Bit rate mode                            : Variable
Bit rate                                 : 70 b/s
Stream size                              : 49.4 KiB (0%)
Title                                    : Dansk
Language                                 : Danish
Forced                                   : No

Text #2
ID                                       : 4
Format                                   : Timed Text
Codec ID                                 : tx3g
Duration                                 : 1 h 36 min
Bit rate mode                            : Variable
Bit rate                                 : 75 b/s
Stream size                              : 52.9 KiB (0%)
Title                                    : German
Language                                 : German
Forced                                   : No

Text #3
ID                                       : 5
Format                                   : Timed Text
Codec ID                                 : tx3g
Duration                                 : 1 h 36 min
Bit rate mode                            : Variable
Bit rate                                 : 73 b/s
Stream size                              : 51.7 KiB (0%)
Title                                    : Espa?ol (Latinoamericano)
Language                                 : Spanish
Forced                                   : No

Text #4
ID                                       : 6
Format                                   : Timed Text
Codec ID                                 : tx3g
Duration                                 : 1 h 36 min
Bit rate mode                            : Variable
Bit rate                                 : 72 b/s
Stream size                              : 50.8 KiB (0%)
Title                                    : Espa?ol
Language                                 : Spanish
Forced                                   : No

Text #5
ID                                       : 7
Format                                   : Timed Text
Codec ID                                 : tx3g
Duration                                 : 1 h 36 min
Bit rate mode                            : Variable
Bit rate                                 : 67 b/s
Stream size                              : 47.8 KiB (0%)
Title                                    : Suomi
Language                                 : Finnish
Forced                                   : No

Text #6
ID                                       : 8
Format                                   : Timed Text
Codec ID                                 : tx3g
Duration                                 : 1 h 36 min
Bit rate mode                            : Variable
Bit rate                                 : 62 b/s
Stream size                              : 44.0 KiB (0%)
Title                                    : Fran?ais (Canadien)
Language                                 : French
Forced                                   : No

Text #7
ID                                       : 9
Format                                   : Timed Text
Codec ID                                 : tx3g
Duration                                 : 1 h 36 min
Bit rate mode                            : Variable
Bit rate                                 : 62 b/s
Stream size                              : 43.9 KiB (0%)
Title                                    : Fran?ais
Language                                 : French
Forced                                   : No

Text #8
ID                                       : 10
Format                                   : Timed Text
Codec ID                                 : tx3g
Duration                                 : 1 h 36 min
Bit rate mode                            : Variable
Bit rate                                 : 75 b/s
Stream size                              : 53.2 KiB (0%)
Title                                    : Italiano
Language                                 : Italian
Forced                                   : No

Text #9
ID                                       : 11
Format                                   : Timed Text
Codec ID                                 : tx3g
Duration                                 : 1 h 36 min
Bit rate mode                            : Variable
Bit rate                                 : 61 b/s
Stream size                              : 43.2 KiB (0%)
Title                                    : Nederlands
Language                                 : Dutch
Forced                                   : No

Text #10
ID                                       : 12
Format                                   : Timed Text
Codec ID                                 : tx3g
Duration                                 : 1 h 36 min
Bit rate mode                            : Variable
Bit rate                                 : 69 b/s
Stream size                              : 48.9 KiB (0%)
Title                                    : Norsk
Language                                 : Norwegian
Forced                                   : No

Text #11
ID                                       : 13
Format                                   : Timed Text
Codec ID                                 : tx3g
Duration                                 : 1 h 36 min
Bit rate mode                            : Variable
Bit rate                                 : 65 b/s
Stream size                              : 45.9 KiB (0%)
Title                                    : Português (Brasil)
Language                                 : Portuguese
Forced                                   : No

Text #12
ID                                       : 14
Format                                   : Timed Text
Codec ID                                 : tx3g
Duration                                 : 1 h 36 min
Bit rate mode                            : Variable
Bit rate                                 : 69 b/s
Stream size                              : 48.5 KiB (0%)
Title                                    : Português
Language                                 : Portuguese
Forced                                   : No

Text #13
ID                                       : 15
Format                                   : Timed Text
Codec ID                                 : tx3g
Duration                                 : 1 h 36 min
Bit rate mode                            : Variable
Bit rate                                 : 71 b/s
Stream size                              : 50.2 KiB (0%)
Title                                    : Svenska
Language                                 : Swedish
Forced                                   : No

Text #14
ID                                       : 16
Format                                   : Timed Text
Codec ID                                 : tx3g
Duration                                 : 1 h 30 min
Bit rate mode                            : Variable
Bit rate                                 : 88 b/s
Stream size                              : 57.7 KiB (0%)
Title                                    : English (SDH)
Language                                 : English
Forced                                   : No




                                                                                                                                                                                                        
                                                                                                                                                                                                                                                                                                                                                                                                                                                                                                                                                                                                                                                                                                                                                                                                                                                        
a8bae793708602035671e2e66cd72532.zip (84.54 KB, 下载次数: 1)

回复

使用道具 举报

小黑屋|磁力链接吧 |网站地图

本网站所有资源来自网络,如无意中侵犯了您的权益,请发邮件至 [email protected],立即清除相关链接

GMT+8, 2021-4-16 08:14 , Processed in 0.172660 second(s), 22 queries .

Powered by Discuz! X3.2

© 2001-2013 Comsenz Inc.

快速回复 返回顶部 返回列表