磁力链接吧

 找回密码
 立即注册
搜索

兽王伏魔/万兽之王 The.Beastmaster.1982.REMASTERED.720p.BluRay.x264-Pi...

[复制链接]
百度云资源 发表于 2021-3-1 15:35:26 | 显示全部楼层 |阅读模式
-->
帖子完整标题:兽王伏魔/万兽之王 The.Beastmaster.1982.REMASTERED.720p.BluRay.x264-PiGNUS 9.97GB


[/url]

◎译  名 兽王伏魔/万兽之王/魔诫奇兵
◎片  名 The Beastmaster
◎年  代 1982
◎产  地 美国,西德
◎类  别 动作 / 奇幻 / 冒险
◎语  言 英语
◎上映日期 1982-08-20
◎IMDb评分  6.2/10 from 21004 users
◎  
◎豆瓣评分 7.1/10 from 131 users
◎ 
◎片  长 118 分钟
◎导  演 唐·柯斯卡莱利 Don Coscarelli
◎编  剧 保罗·佩珀曼 Paul Pepperman / 唐·柯斯卡莱利 Don Coscarelli / 安德丽·诺顿 Andre Norton
◎主  演 马克·辛格 Marc Singer
       坦娅·罗伯茨 Tanya Roberts
       雷普·汤恩 Rip Torn
       约翰·阿莫斯 John Amos
       Joshua Milrad
       罗德·卢米斯 Rod Loomis
       本·哈默 Ben Hammer
       Ralph Strait
       比利·詹 Billy Jayne
       Janet DeMay
       珍妮特·琼斯 Janet Jones
       万娜·邦塔 Vanna Bonta
       Monty L. Simons
       Jeremy Whelan
       Bruce Paul Barbour
       埃迪·多诺 Eddy Donno
       弗雷迪·海斯 Freddie Hice
       保罗·雷诺兹 Paul Reynolds
       Larry Randles
       Diamond Farnsworth
       比利·汉克·胡克 Billy Hank Hooker
       Chuck Hicks
       Tommy J. Huff

◎标  签 电影 | 奇幻 | 美国电影 | 魔幻 | 冒险 | 美国 | 动作 | 1982

◎简  介

  上古洪荒时代,流传著神奇的冒险故事。“万兽王”达尔即是这个时代的英雄。
  
  达尔出生皇室,却被巫师亚刚追杀,流落民间。他成人不久,养父就被野蛮人杀死,但他也发现了他能与动物交流的能力。
  
  同时,他必须阻止巫师亚刚拿到“布朗斯之眼”。因为一 旦亚刚拿到此颗宝石,邪魔恶神布朗斯将重返人间,助亚刚王为恶,荼毒生灵。为了取得布朗斯的魔力,亚刚绑架了达尔的亲兄弟——泰尔王,兄弟情深的达尔誓言救回兄弟,为父报仇,他带领著忠心的动物军队以及军师塞斯向亚刚王宣战。达尔将和这位神秘没测的魔头刀锋相对决一死战。
Video
ID                                       : 1
Format                                   : AVC
Format/Info                              : Advanced Video Codec
Format profile                           :
Format settings                          : CABAC / 8 Ref Frames
Format settings, CABAC                   : Yes
Format settings, Reference frames        : 8 frames
Codec ID                                 : V_MPEG4/ISO/AVC
Duration                                 : 1 h 58 min
Bit rate                                 : 10.1 Mb/s
Width                                    : 1 280 pixels
Height                                   : 690 pixels
Display aspect ratio                     : 1.85:1
Frame rate mode                          : Constant
Frame rate                               : 23.976 (24000/1001/189150) FPS
Color space                              : YUV
Chroma subsampling                       : 4:2:0
Bit depth                                : 8 bits
Scan type                                : Progressive
Bits/(Pixel*Frame)                       : 0.475
Stream size                              : 8.32 GiB (84%)
Writing library                          : x264 core 161 r3043 59c0609
Encoding settings                        : cabac=1 / ref=8 / deblock=1:-3:-3 / analyse=0x3:0x133 / me=umh / subme=9 / psy=1 / psy_rd=1.00:0.00 / mixed_ref=1 / me_range=16 / chroma_me=1 / trellis=2 / 8x8dct=1 / cqm=0 / deadzone=21,11 / fast_pskip=1 / chroma_qp_offset=-2 / threads=22 / lookahead_threads=1 / sliced_threads=0 / nr=0 / decimate=1 / interlaced=0 / bluray_compat=0 / constrained_intra=0 / bframes=3 / b_pyramid=2 / b_adapt=2 / b_bias=0 / direct=3 / weightb=1 / open_gop=0 / weightp=2 / keyint=250 / keyint_min=23 / scenecut=40 / intra_refresh=0 / rc_lookahead=60 / rc=crf / mbtree=1 / crf=19.8 / qcomp=0.60 / qpmin=0 / qpmax=69 / qpstep=4 / ip_ratio=1.40 / aq=1:1.00
Default                                  : Yes
Forced                                   : No

Audio #1
ID                                       : 2
Format                                   : FLAC
Format/Info                              : Free Lossless Audio Codec
Codec ID                                 : A_FLAC
Duration                                 : 1 h 58 min
Bit rate mode                            : Variable
Bit rate                                 : 1 401 kb/s
Channel(s)                               : 2 channels
Channel layout                           : L R
Sampling rate                            : 48.0 kHz
Frame rate                               : 11.719 FPS (4096 SPF)
Bit depth                                : 24 bits
Compression mode                         : Lossless
Stream size                              : 1.16 GiB (12%)
Title                                    : Original
Writing library                          : libFLAC 1.2.1 (UTC 2007-09-17)
Language                                 : English
Default                                  : Yes
Forced                                   : No

Audio #2
ID                                       : 3
Format                                   : AC-3
Format/Info                              : Audio Coding 3
Commercial name                          : Dolby Digital
Codec ID                                 : A_AC3
Duration                                 : 1 h 58 min
Bit rate mode                            : Constant
Bit rate                                 : 448 kb/s
Channel(s)                               : 6 channels
Channel layout                           : L R C LFE Ls Rs
Sampling rate                            : 48.0 kHz
Frame rate                               : 31.250 FPS (1536 SPF)
Compression mode                         : Lossy
Stream size                              : 380 MiB (4%)
Title                                    : New
Language                                 : English
Service kind                             : Complete Main
Default                                  : No
Forced                                   : No

Audio #3
ID                                       : 4
Format                                   : AAC LC
Format/Info                              : Advanced Audio Codec Low Complexity
Codec ID                                 : A_AAC-2
Duration                                 : 1 h 58 min
Bit rate                                 : 66.2 kb/s
Channel(s)                               : 1 channel
Channel layout                           : C
Sampling rate                            : 48.0 kHz
Frame rate                               : 46.875 FPS (1024 SPF)
Compression mode                         : Lossy
Delay relative to video                  : 9 ms
Stream size                              : 55.1 MiB (1%)
Title                                    : New Commentary
Language                                 : English
Default                                  : No
Forced                                   : No

Audio #4
ID                                       : 5
Format                                   : AAC LC
Format/Info                              : Advanced Audio Codec Low Complexity
Codec ID                                 : A_AAC-2
Duration                                 : 1 h 58 min
Bit rate                                 : 66.2 kb/s
Channel(s)                               : 1 channel
Channel layout                           : C
Sampling rate                            : 48.0 kHz
Frame rate                               : 46.875 FPS (1024 SPF)
Compression mode                         : Lossy
Delay relative to video                  : 9 ms
Stream size                              : 55.8 MiB (1%)
Title                                    : Archival Commentary
Language                                 : English
Default                                  : No
Forced                                   : No

Text
ID                                       : 6
Format                                   : PGS
Muxing mode                              : zlib
Codec ID                                 : S_HDMV/PGS
Codec ID/Info                            : Picture based subtitle format used on BDs/HD-DVDs
Duration                                 : 1 h 55 min
Bit rate                                 : 11.0 kb/s
Count of elements                        : 2057
Stream size                              : 9.10 MiB (0%)
Title                                    : English SDH
Language                                 : English
Default                                  : No
Forced                                   : No

Menu
00:00:00.000                             : en:Chapter 01
00:22:02.822                             : en:Chapter 02
00:43:12.590                             : en:Chapter 03
01:03:40.817                             : en:Chapter 04
01:22:03.919                             : en:Chapter 05
01:41:55.109                             : en:Chapter 06
01:58:27.684                             : en:Chapter 07
[/url]



                                                                                                                                                                                                        
                                                                                                                                                                                                                                                                                                                                                                                                                                                                                                                                                                                                                                                                                                                                                                                                                                                        
2f5fdc6d9f8b5d9371602c57d85316a5.zip (50.57 KB, 下载次数: 11)

回复

使用道具 举报

小黑屋|磁力链接吧 |网站地图

本网站所有资源来自网络,如无意中侵犯了您的权益,请发邮件至 [email protected],立即清除相关链接

GMT+8, 2021-4-16 09:42 , Processed in 0.136255 second(s), 22 queries .

Powered by Discuz! X3.2

© 2001-2013 Comsenz Inc.

快速回复 返回顶部 返回列表