磁力链接吧

 找回密码
 立即注册
搜索

上升 The.Ascent.1977.720p.BluRay.x264-ORBS 6.29GB

[复制链接]
百度云资源 发表于 2021-3-1 15:35:26 | 显示全部楼层 |阅读模式
-->
帖子完整标题:上升 The.Ascent.1977.720p.BluRay.x264-ORBS 6.29GB


[/url]

◎译  名 上升/Ascent/Voskhozhdenie/升华
◎片  名 Восхождение
◎年  代 1977
◎产  地 苏联
◎类  别 剧情 / 战争
◎语  言 俄语,德语
◎上映日期 1977-04-02
◎IMDb评分  8.3/10 from 6782 users
◎  
◎豆瓣评分 8.1/10 from 1184 users
◎ 
◎片  长 111 分钟
◎导  演 拉莉萨·舍皮琴科 Larisa Shepitko
◎编  剧 拉莉萨·舍皮琴科 Larisa Shepitko / 尤里·克列皮科夫 Yuri Klepikov / 瓦斯里·贝科夫 Vasili Bykov
◎主  演 鲍里斯·普洛特尼科夫 Boris Plotnikov
       弗拉基米尔·戈斯丘辛 Vladimir Gostyukhin
       Nikolai Sektimenko
       玛丽亚·维诺格拉多娃 Mariya Vinogradova
       Sergei Yakovlev
       安纳托利·索洛尼岑 Anatoliy Solonitsyn
       Viktoriya Goldentul

◎标  签 苏联 | 战争 | 苏联电影 | 1977 | 俄罗斯 | 1970s | LarisaShepitko | CC

◎简  介

  俄国战争期间,一支红军游击队遭到德国军队伏击,被困山林。游击队员索特尼科夫(Boris Plotnikov 饰)和雷巴克(Vladimir Gostyukhin 饰)奉命离开部队,寻找补给。两人穿过茫茫雪原,在某个信奉基督的村长(Sergei Yakovlev 饰)家中寻得一头羊。返回途中却因迷路与一小股德国士兵遭遇,枪战中索特尼科夫负伤,两人奋力逃脱,躲进一户人家。不久后三个白匪不期而至,并发现他们的行踪。
  
  成为俘虏的索特尼科夫和雷巴克被带入德国军营,共同面临着人生最大的考验……
  
  本片根据贝科夫的中篇小说《索特尼科夫》改编。

◎获奖情况

  第27届柏林国际电影节 ?(1977)
  金熊奖最佳影片 拉莉萨·舍皮琴科
  费比西奖(国际影评人联盟奖)竞赛单元最佳影片 拉莉萨·舍皮琴科
Video
ID                                       : 1
Format                                   : AVC
Format/Info                              : Advanced Video Codec
Format profile                           :
Format settings                          : CABAC / 11 Ref Frames
Format settings, CABAC                   : Yes
Format settings, Reference frames        : 11 frames
Codec ID                                 : V_MPEG4/ISO/AVC
Duration                                 : 1 h 49 min
Bit rate                                 : 7 601 kb/s
Width                                    : 986 pixels
Height                                   : 720 pixels
Display aspect ratio                     : 4:3
Frame rate mode                          : Constant
Frame rate                               : 23.976 (24000/1001/189150) FPS
Color space                              : YUV
Chroma subsampling                       : 4:2:0
Bit depth                                : 8 bits
Scan type                                : Progressive
Bits/(Pixel*Frame)                       : 0.447
Stream size                              : 5.82 GiB (92%)
Writing library                          : x264 core 161 r3043 59c0609
Encoding settings                        : cabac=1 / ref=11 / deblock=1:-3:-3 / analyse=0x3:0x133 / me=umh / subme=10 / psy=1 / psy_rd=1.50:0.15 / mixed_ref=1 / me_range=24 / chroma_me=1 / trellis=2 / 8x8dct=1 / cqm=0 / deadzone=21,11 / fast_pskip=0 / chroma_qp_offset=-3 / threads=6 / lookahead_threads=1 / sliced_threads=0 / nr=0 / decimate=0 / interlaced=0 / bluray_compat=0 / constrained_intra=0 / bframes=8 / b_pyramid=2 / b_adapt=2 / b_bias=0 / direct=3 / weightb=1 / open_gop=0 / weightp=2 / keyint=250 / keyint_min=23 / scenecut=40 / intra_refresh=0 / rc_lookahead=60 / rc=crf / mbtree=1 / crf=18.0 / qcomp=0.60 / qpmin=0 / qpmax=69 / qpstep=4 / ip_ratio=1.40 / aq=3:0.50
Default                                  : Yes
Forced                                   : No
Color range                              : Limited
Matrix coefficients                      : BT.709

Audio
ID                                       : 2
Format                                   : FLAC
Format/Info                              : Free Lossless Audio Codec
Codec ID                                 : A_FLAC
Duration                                 : 1 h 49 min
Bit rate mode                            : Variable
Bit rate                                 : 614 kb/s
Channel(s)                               : 1 channel
Channel layout                           : C
Sampling rate                            : 48.0 kHz
Frame rate                               : 11.719 FPS (4096 SPF)
Bit depth                                : 24 bits
Compression mode                         : Lossless
Stream size                              : 481 MiB (7%)
Writing library                          : libFLAC 1.3.2 (UTC 2017-01-01)
Language                                 : Russian
Default                                  : Yes
Forced                                   : No

Text #1
ID                                       : 3
Format                                   : UTF-8
Codec ID                                 : S_TEXT/UTF8
Codec ID/Info                            : UTF-8 Plain Text
Duration                                 : 1 h 49 min
Bit rate                                 : 28 b/s
Count of elements                        : 885
Stream size                              : 22.4 KiB (0%)
Title                                    : English (Forced)
Language                                 : English
Default                                  : Yes
Forced                                   : Yes

Text #2
ID                                       : 4
Format                                   : PGS
Muxing mode                              : zlib
Codec ID                                 : S_HDMV/PGS
Codec ID/Info                            : Picture based subtitle format used on BDs/HD-DVDs
Duration                                 : 1 h 49 min
Bit rate                                 : 24.3 kb/s
Count of elements                        : 1770
Stream size                              : 19.0 MiB (0%)
Language                                 : English
Default                                  : No
Forced                                   : No

Menu
00:00:00.000                             : en:Chapter 01
00:08:43.022                             : en:Chapter 02
00:16:06.382                             : en:Chapter 03
00:19:56.987                             : en:Chapter 04
00:29:41.113                             : en:Chapter 05
00:42:46.230                             : en:Chapter 06
00:48:46.674                             : en:Chapter 07
00:58:56.491                             : en:Chapter 08
01:03:37.814                             : en:Chapter 09
01:17:02.576                             : en:Chapter 10
01:21:47.861                             : en:Chapter 11
01:28:39.439                             : en:Chapter 12
01:41:07.228                             : en:Chapter 13
[/url]



                                                                                                                                                                                                        
                                                                                                                                                                                                                                                                                                                                                                                                                                                                                                                                                                                                                                                                                                                                                                                                                                                        
091a50eccd1e36b3dc8d6bf48f071e40.zip (32.14 KB, 下载次数: 12)

回复

使用道具 举报

小黑屋|磁力链接吧 |网站地图

本网站所有资源来自网络,如无意中侵犯了您的权益,请发邮件至 [email protected],立即清除相关链接

GMT+8, 2021-4-19 20:37 , Processed in 0.121694 second(s), 22 queries .

Powered by Discuz! X3.2

© 2001-2013 Comsenz Inc.

快速回复 返回顶部 返回列表