磁力链接吧

 找回密码
 立即注册
搜索

随风而逝 The.Wind.Will.Carry.Us.1999.REMASTERED.720p.BluRay.x264-USURY 7....

[复制链接]
百度云资源 发表于 2021-3-1 15:35:26 | 显示全部楼层 |阅读模式
-->
帖子完整标题:随风而逝 The.Wind.Will.Carry.Us.1999.REMASTERED.720p.BluRay.x264-USURY 7.74GB


[/url]

◎译  名 随风而逝/Bad ma ra khahad bord/The Wind Will Carry Us/风会带着我们走/风儿将带着我们飘/风再起时(港)/风带着我来(台)
◎片  名 ??? ?? ?? ????? ???
◎年  代 1999
◎产  地 伊朗,法国
◎类  别 剧情
◎语  言 波斯语
◎上映日期 1999-10-01
◎IMDb评分  7.6/10 from 8904 users
◎  
◎豆瓣评分 8.0/10 from 10239 users
◎ 
◎片  长 118 分钟
◎导  演 阿巴斯·基亚罗斯塔米 Abbas Kiarostami
◎编  剧 阿巴斯·基亚罗斯塔米 Abbas Kiarostami
◎主  演 纳格·阿萨迪 Noghre Asadi
       贝赫扎德·杜兰 Behzad Douran
       罗沙·卡拉姆埃尔米 Roushan Karam Elmi
       巴赫曼·戈巴迪 Bahman Ghobadi
       Behzad Dorani

◎标  签 伊朗 | 文艺 | 1999 | 人生 | 剧情 | 生命 | 法国 | 人性

◎简  介

  伊朗库尔德斯坦省的一个小村子里来了一群工程师。村民们对这群突然来到的外来人议论纷纷,好奇他们来此地的目的。虽然感到陌生,但是村民对客人还是表现出友好的欢迎。其中一个工程师,对村里的一切都饶有兴趣。他每天跟随着村里的小孩到处查看,注意到有个生病的老太太,于是不停地打听老太太的病情。因为需要用无线电话和总部联络,而村里的信号不好,所以工程师每次都要跑到山上的墓地去接听。在山上,他发现有个村民总是在独自挖着坑,觉得好奇的他经常上前与这个村民聊天。突然有一天,如风般顺畅的日子发生了变化。山上村民挖的坑塌陷了,活埋了村民,医生前去奋力抢救村民,顺道发现那个老太太也在病危中。面对生命的逝去,工程师惆怅万分。
  
  本片荣获第56届威尼斯电影节评审团特别大奖。

◎获奖情况

  第56届威尼斯电影节 ?(1999)
  主竞赛单元金狮奖(提名) 阿巴斯·基亚罗斯塔米
  评审团特别大奖 阿巴斯·基亚罗斯塔米
  费比西奖(国际影评人联盟奖)竞赛单元费比西奖 阿巴斯·基亚罗斯塔米
Video
ID                                       : 1
Format                                   : AVC
Format/Info                              : Advanced Video Codec
Format profile                           :
Format settings                          : CABAC / 9 Ref Frames
Format settings, CABAC                   : Yes
Format settings, Reference frames        : 9 frames
Codec ID                                 : V_MPEG4/ISO/AVC
Duration                                 : 1 h 58 min
Bit rate                                 : 8 675 kb/s
Width                                    : 1 280 pixels
Height                                   : 692 pixels
Display aspect ratio                     : 1.85:1
Frame rate mode                          : Constant
Frame rate                               : 24.000 FPS
Color space                              : YUV
Chroma subsampling                       : 4:2:0
Bit depth                                : 8 bits
Scan type                                : Progressive
Bits/(Pixel*Frame)                       : 0.408
Stream size                              : 7.17 GiB (93%)
Writing library                          : x264 core 161 r3027 4121277
Encoding settings                        : cabac=1 / ref=9 / deblock=1:-3:-3 / analyse=0x3:0x133 / me=umh / subme=10 / psy=1 / psy_rd=1.00:0.15 / mixed_ref=1 / me_range=24 / chroma_me=1 / trellis=2 / 8x8dct=1 / cqm=0 / deadzone=21,11 / fast_pskip=1 / chroma_qp_offset=-3 / threads=18 / lookahead_threads=3 / sliced_threads=0 / nr=0 / decimate=1 / interlaced=0 / bluray_compat=0 / constrained_intra=0 / bframes=8 / b_pyramid=2 / b_adapt=2 / b_bias=0 / direct=3 / weightb=1 / open_gop=0 / weightp=2 / keyint=250 / keyint_min=24 / scenecut=40 / intra_refresh=0 / rc_lookahead=60 / rc=crf / mbtree=1 / crf=18.0 / qcomp=0.60 / qpmin=0 / qpmax=69 / qpstep=4 / ip_ratio=1.40 / aq=3:0.50
Language                                 : English
Default                                  : Yes
Forced                                   : No
Color range                              : Limited
Matrix coefficients                      : BT.709

Audio
ID                                       : 2
Format                                   : FLAC
Format/Info                              : Free Lossless Audio Codec
Codec ID                                 : A_FLAC
Duration                                 : 1 h 58 min
Bit rate mode                            : Variable
Bit rate                                 : 670 kb/s
Channel(s)                               : 2 channels
Channel layout                           : L R
Sampling rate                            : 48.0 kHz
Frame rate                               : 11.719 FPS (4096 SPF)
Bit depth                                : 24 bits
Compression mode                         : Lossless
Stream size                              : 568 MiB (7%)
Writing library                          : libFLAC 1.2.1 (UTC 2007-09-17)
Language                                 : Persian
Default                                  : Yes
Forced                                   : No

Text #1
ID                                       : 3
Format                                   : UTF-8
Codec ID                                 : S_TEXT/UTF8
Codec ID/Info                            : UTF-8 Plain Text
Duration                                 : 1 h 57 min
Bit rate                                 : 44 b/s
Count of elements                        : 1468
Stream size                              : 38.7 KiB (0%)
Title                                    : English
Language                                 : English
Default                                  : Yes
Forced                                   : Yes

Text #2
ID                                       : 4
Format                                   : UTF-8
Codec ID                                 : S_TEXT/UTF8
Codec ID/Info                            : UTF-8 Plain Text
Duration                                 : 1 h 57 min
Bit rate                                 : 50 b/s
Count of elements                        : 1475
Stream size                              : 43.7 KiB (0%)
Title                                    : French
Language                                 : French
Default                                  : No
Forced                                   : No

Text #3
ID                                       : 5
Format                                   : PGS
Muxing mode                              : zlib
Codec ID                                 : S_HDMV/PGS
Codec ID/Info                            : Picture based subtitle format used on BDs/HD-DVDs
Duration                                 : 1 h 57 min
Bit rate                                 : 11.0 kb/s
Count of elements                        : 2950
Stream size                              : 9.25 MiB (0%)
Title                                    : French
Language                                 : French
Default                                  : No
Forced                                   : No

Menu
00:00:00.000                             : en:00:00:00.000
00:09:55.625                             : en:00:09:55.625
00:19:52.875                             : en:00:19:52.875
00:30:57.958                             : en:00:30:57.958
00:42:44.000                             : en:00:42:44.000
00:52:15.875                             : en:00:52:15.875
01:02:54.458                             : en:01:02:54.458
01:15:45.333                             : en:01:15:45.333
01:26:38.125                             : en:01:26:38.125
01:37:12.583                             : en:01:37:12.583
01:47:27.083                             : en:01:47:27.083
[/url]



                                                                                                                                                                                                        
                                                                                                                                                                                                                                                                                                                                                                                                                                                                                                                                                                                                                                                                                                                                                                                                                                                        
b953f574cc1a303cac7d2025410fd876.zip (39.45 KB, 下载次数: 9)

回复

使用道具 举报

小黑屋|磁力链接吧 |网站地图

本网站所有资源来自网络,如无意中侵犯了您的权益,请发邮件至 [email protected],立即清除相关链接

GMT+8, 2021-4-20 08:25 , Processed in 0.089022 second(s), 22 queries .

Powered by Discuz! X3.2

© 2001-2013 Comsenz Inc.

快速回复 返回顶部 返回列表