磁力链接吧

 找回密码
 立即注册
搜索

宝贝儿/娃娃新娘 Baby.Doll.1956.720p.BluRay.x264-USURY 8.33GB

[复制链接]
百度云资源 发表于 2021-3-1 15:35:26 | 显示全部楼层 |阅读模式
-->
帖子完整标题:宝贝儿/娃娃新娘 Baby.Doll.1956.720p.BluRay.x264-USURY 8.33GB


[/url]

◎译  名 宝贝儿/娃娃新娘
◎片  名 Baby Doll
◎年  代 1956
◎产  地 美国
◎类  别 剧情 / 喜剧
◎语  言 英语
◎上映日期 1956-12-18
◎IMDb评分  7.4/10 from 6871 users
◎  
◎豆瓣评分 7.1/10 from 182 users
◎ 
◎片  长 114 分钟
◎导  演 伊利亚·卡赞 Elia Kazan
◎编  剧 田纳西·威廉斯 Tennessee Williams
◎主  演 卡尔·莫尔登 Karl Malden
       卡罗尔·贝克 Carroll Baker
       埃里·瓦拉赫 Eli Wallach
       米尔德丽德·丹诺克 Mildred Dunnock
       朗尼·查普曼 Lonny Chapman

◎标  签 美国 | 美国电影 | 伊利亚·卡赞 | 1956 | 剧情 | EliaKazan | 1950s | Tennessee_Williams

◎简  介

  Living in Tiger Tail County, Mississippi, middle aged Archie Lee Meighan and nineteen year old "Baby Doll" Meighan née McCargo have been married for close to two years. Their marriage is not based on love, but each getting what they want from the other. Their marriage agreement has them consummating their marriage on her twentieth birthday, which is in three days, the act to which Baby Doll is not really looking forward. But she does taunt him and other men with her overt "baby doll" sexuality, the baby doll aspect which she fosters by sleeping in their house's nursery in a crib. Baby Doll's now deceased father allowed the marriage on the stipulation that Archie Lee provide Baby Doll financial security as displayed by the most resplendent house in the south. They currently live in a dilapidated mansion with her Aunt Rose Comfort, and although Archie Lee is making some renovations on it, he no longer has the financial means to make it what Baby Doll wants as his cotton ginning ... Written by Huggo

◎获奖情况

  第29届奥斯卡金像奖 ?(1957)
  最佳女主角(提名) 卡罗尔·贝克
  最佳女配角(提名) 米尔德丽德·丹诺克
  最佳改编剧本(提名) 田纳西·威廉斯
  黑白片最佳摄影(提名) 鲍里斯·考夫曼
  
  第14届金球奖 ?(1957)
  电影类最佳导演 伊利亚·卡赞
  电影类剧情片最佳男主角(提名) 卡尔·莫尔登
  电影类剧情片最佳女主角(提名) 卡罗尔·贝克
  电影类最佳男配角(提名) 埃里·瓦拉赫
  电影类最佳女配角(提名) 米尔德丽德·丹诺克
Video
ID                                       : 1
Format                                   : AVC
Format/Info                              : Advanced Video Codec
Format profile                           :
Format settings                          : CABAC / 9 Ref Frames
Format settings, CABAC                   : Yes
Format settings, Reference frames        : 9 frames
Codec ID                                 : V_MPEG4/ISO/AVC
Duration                                 : 1 h 54 min
Bit rate                                 : 9 788 kb/s
Width                                    : 1 280 pixels
Height                                   : 692 pixels
Display aspect ratio                     : 1.85:1
Frame rate mode                          : Constant
Frame rate                               : 23.976 (24000/1001/189150) FPS
Color space                              : YUV
Chroma subsampling                       : 4:2:0
Bit depth                                : 8 bits
Scan type                                : Progressive
Bits/(Pixel*Frame)                       : 0.461
Stream size                              : 7.84 GiB (94%)
Writing library                          : x264 core 161 r3048 b86ae3c
Encoding settings                        : cabac=1 / ref=9 / deblock=1:-3:-3 / analyse=0x3:0x133 / me=umh / subme=10 / psy=1 / psy_rd=1.00:0.15 / mixed_ref=1 / me_range=24 / chroma_me=1 / trellis=2 / 8x8dct=1 / cqm=0 / deadzone=21,11 / fast_pskip=1 / chroma_qp_offset=-3 / threads=18 / lookahead_threads=3 / sliced_threads=0 / nr=0 / decimate=1 / interlaced=0 / bluray_compat=0 / constrained_intra=0 / bframes=8 / b_pyramid=2 / b_adapt=2 / b_bias=0 / direct=3 / weightb=1 / open_gop=0 / weightp=2 / keyint=250 / keyint_min=23 / scenecut=40 / intra_refresh=0 / rc_lookahead=60 / rc=crf / mbtree=1 / crf=19.5 / qcomp=0.60 / qpmin=0 / qpmax=69 / qpstep=4 / ip_ratio=1.40 / aq=3:0.50
Language                                 : English
Default                                  : Yes
Forced                                   : No

Audio
ID                                       : 2
Format                                   : FLAC
Format/Info                              : Free Lossless Audio Codec
Codec ID                                 : A_FLAC
Duration                                 : 1 h 54 min
Bit rate mode                            : Variable
Bit rate                                 : 600 kb/s
Channel(s)                               : 2 channels
Channel layout                           : L R
Sampling rate                            : 48.0 kHz
Frame rate                               : 11.719 FPS (4096 SPF)
Bit depth                                : 24 bits
Compression mode                         : Lossless
Stream size                              : 492 MiB (6%)
Writing library                          : libFLAC 1.2.1 (UTC 2007-09-17)
Language                                 : English
Default                                  : Yes
Forced                                   : No

Text #1
ID                                       : 3
Format                                   : UTF-8
Codec ID                                 : S_TEXT/UTF8
Codec ID/Info                            : UTF-8 Plain Text
Duration                                 : 1 h 52 min
Bit rate                                 : 69 b/s
Count of elements                        : 1736
Stream size                              : 57.6 KiB (0%)
Title                                    : English
Language                                 : English
Default                                  : No
Forced                                   : No

Text #2
ID                                       : 4
Format                                   : UTF-8
Codec ID                                 : S_TEXT/UTF8
Codec ID/Info                            : UTF-8 Plain Text
Duration                                 : 1 h 54 min
Bit rate                                 : 74 b/s
Count of elements                        : 1925
Stream size                              : 62.0 KiB (0%)
Title                                    : English SDH
Language                                 : English
Default                                  : No
Forced                                   : No

Text #3
ID                                       : 5
Format                                   : PGS
Muxing mode                              : zlib
Codec ID                                 : S_HDMV/PGS
Codec ID/Info                            : Picture based subtitle format used on BDs/HD-DVDs
Duration                                 : 1 h 54 min
Bit rate                                 : 21.2 kb/s
Count of elements                        : 3850
Stream size                              : 17.4 MiB (0%)
Title                                    : English SDH
Language                                 : English
Default                                  : No
Forced                                   : No

Menu
00:00:00.000                             : en:00:00:00.000
00:02:07.461                             : en:00:02:07.461
00:06:35.604                             : en:00:06:35.604
00:10:38.179                             : en:00:10:38.179
00:13:46.200                             : en:00:13:46.200
00:18:59.013                             : en:00:18:59.013
00:23:04.300                             : en:00:23:04.300
00:26:46.939                             : en:00:26:46.939
00:30:47.596                             : en:00:30:47.596
00:34:21.935                             : en:00:34:21.935
00:37:09.436                             : en:00:37:09.436
00:42:45.021                             : en:00:42:45.021
00:48:05.299                             : en:00:48:05.299
00:53:14.942                             : en:00:53:14.942
00:56:51.491                             : en:00:56:51.491
00:59:30.233                             : en:00:59:30.233
01:05:05.110                             : en:01:05:05.110
01:09:01.346                             : en:01:09:01.346
01:11:49.847                             : en:01:11:49.847
01:15:23.102                             : en:01:15:23.102
01:18:48.599                             : en:01:18:48.599
01:23:57.199                             : en:01:23:57.199
01:28:03.487                             : en:01:28:03.487
01:32:39.262                             : en:01:32:39.262
01:37:46.194                             : en:01:37:46.194
01:44:09.285                             : en:01:44:09.285
01:47:36.909                             : en:01:47:36.909
01:51:54.541                             : en:01:51:54.541
01:54:14.181                             : en:01:54:14.181
[/url]



                                                                                                                                                                                                        
                                                                                                                                                                                                                                                                                                                                                                                                                                                                                                                                                                                                                                                                                                                                                                                                                                                        
8e0c91ae38d911d99c5ca23ddf1eb73f.zip (42.34 KB, 下载次数: 15)

回复

使用道具 举报

小黑屋|磁力链接吧 |网站地图

本网站所有资源来自网络,如无意中侵犯了您的权益,请发邮件至 [email protected],立即清除相关链接

GMT+8, 2021-4-20 09:33 , Processed in 0.114658 second(s), 22 queries .

Powered by Discuz! X3.2

© 2001-2013 Comsenz Inc.

快速回复 返回顶部 返回列表