磁力链接吧

 找回密码
 立即注册
搜索

文豪野犬 Dead Apple Bungo.Stray.Dogs.Dead.Apple.2018.720p.BluRay.x264-ORB...

[复制链接]
百度云资源 发表于 2021-3-1 15:35:26 | 显示全部楼层 |阅读模式
-->
帖子完整标题:文豪野犬 Dead Apple Bungo.Stray.Dogs.Dead.Apple.2018.720p.BluRay.x264-ORBS 3.52GB


[/url]

◎译  名 文豪野犬 Dead Apple/Bungou Stray Dogs Dead Apple/文豪ストレイドッグス デッドアップル/文豪野犬 剧场版
◎片  名 文豪ストレイドッグス Dead Apple
◎年  代 2018
◎产  地 日本
◎类  别 动作 / 动画
◎语  言 日语
◎上映日期 2018-03-03(日本)
◎IMDb评分  7.2/10 from 723 users
◎  
◎豆瓣评分 7.9/10 from 5080 users
◎ 
◎片  长 90分钟
◎导  演 五十岚卓哉 Takuya Igarashi
◎编  剧 榎户洋司 Yoji Enokido
◎主  演 上村祐翔 Y?to Uemura
       宫野真守 Mamoru Miyano
       小野贤章 Kensho Ono
       谷山纪章 Kish? Taniyama
       诸星堇 Sumire Morohoshi
       细谷佳正 Yoshimasa Hosoya
       神谷浩史 Hiroshi Kamiya
       丰永利行 Toshiyuki Toyonaga
       花仓洸幸 Kagura Hiroyuki
       岛村侑 Yu Shimamura
       小见川千明 Chiaki Omigawa
       小山力也 Rikiya Koyama
       宫本充 Mitsuru Miyamoto
       雨宫天 Sora Amamiya
       诹访部顺一 Junichi Suwabe
       福山润 Jun Fukuyama
       石田彰 Akira Ishida
       中井和哉 Kazuya Nakai
       高桥李依 Rie Takahashi
       手冢弘道 Tezuka Hiromichi
       中村千绘 Chie Nakamura
       中博史 Hiroshi Naka
       坂本真绫 Maaya Sakamoto

◎标  签 文豪野犬 | 剧场版 | 动漫 | 日本 | 动画 | 热血 | 2018 | 动作

◎简  介

  剧场版《文豪野犬 DEAD APPLE》,于2018年初春上映,剧场版动画依旧由骨头社制作,而且制作阵容和声优基本沿用TV动画。
Video
ID                                       : 1
Format                                   : AVC
Format/Info                              : Advanced Video Codec
Format profile                           :
Format settings                          : CABAC / 9 Ref Frames
Format settings, CABAC                   : Yes
Format settings, Reference frames        : 9 frames
Codec ID                                 : V_MPEG4/ISO/AVC
Duration                                 : 1 h 30 min
Bit rate                                 : 4 277 kb/s
Width                                    : 1 280 pixels
Height                                   : 720 pixels
Display aspect ratio                     : 16:9
Frame rate mode                          : Constant
Frame rate                               : 23.976 (24000/1001/189150) FPS
Color space                              : YUV
Chroma subsampling                       : 4:2:0
Bit depth                                : 8 bits
Scan type                                : Progressive
Bits/(Pixel*Frame)                       : 0.194
Stream size                              : 2.70 GiB (77%)
Writing library                          : x264 core 161 r3043 59c0609
Encoding settings                        : cabac=1 / ref=9 / deblock=1:1:1 / analyse=0x3:0x133 / me=umh / subme=10 / psy=1 / psy_rd=0.60:0.00 / mixed_ref=1 / me_range=24 / chroma_me=1 / trellis=2 / 8x8dct=1 / cqm=0 / deadzone=21,11 / fast_pskip=0 / chroma_qp_offset=-2 / threads=6 / lookahead_threads=1 / sliced_threads=0 / nr=0 / decimate=0 / interlaced=0 / bluray_compat=0 / constrained_intra=0 / bframes=10 / b_pyramid=2 / b_adapt=2 / b_bias=0 / direct=3 / weightb=1 / open_gop=0 / weightp=2 / keyint=250 / keyint_min=23 / scenecut=40 / intra_refresh=0 / rc_lookahead=60 / rc=crf / mbtree=1 / crf=15.0 / qcomp=0.60 / qpmin=0 / qpmax=69 / qpstep=4 / ip_ratio=1.40 / aq=3:1.10
Default                                  : Yes
Forced                                   : No
Color range                              : Limited
Matrix coefficients                      : BT.709

Audio #1
ID                                       : 2
Format                                   : AC-3
Format/Info                              : Audio Coding 3
Commercial name                          : Dolby Digital
Codec ID                                 : A_AC3
Duration                                 : 1 h 30 min
Bit rate mode                            : Constant
Bit rate                                 : 640 kb/s
Channel(s)                               : 6 channels
Channel layout                           : L R C LFE Ls Rs
Sampling rate                            : 48.0 kHz
Frame rate                               : 31.250 FPS (1536 SPF)
Compression mode                         : Lossy
Stream size                              : 414 MiB (11%)
Language                                 : Japanese
Service kind                             : Complete Main
Default                                  : Yes
Forced                                   : No

Audio #2
ID                                       : 3
Format                                   : AC-3
Format/Info                              : Audio Coding 3
Commercial name                          : Dolby Digital
Codec ID                                 : A_AC3
Duration                                 : 1 h 30 min
Bit rate mode                            : Constant
Bit rate                                 : 640 kb/s
Channel(s)                               : 6 channels
Channel layout                           : L R C LFE Ls Rs
Sampling rate                            : 48.0 kHz
Frame rate                               : 31.250 FPS (1536 SPF)
Compression mode                         : Lossy
Stream size                              : 414 MiB (11%)
Language                                 : English
Service kind                             : Complete Main
Default                                  : No
Forced                                   : No

Text #1
ID                                       : 4
Format                                   : PGS
Muxing mode                              : zlib
Codec ID                                 : S_HDMV/PGS
Codec ID/Info                            : Picture based subtitle format used on BDs/HD-DVDs
Duration                                 : 1 h 29 min
Bit rate                                 : 36.4 kb/s
Count of elements                        : 2124
Stream size                              : 23.4 MiB (1%)
Title                                    : Forced
Language                                 : English
Default                                  : Yes
Forced                                   : Yes

Text #2
ID                                       : 5
Format                                   : PGS
Muxing mode                              : zlib
Codec ID                                 : S_HDMV/PGS
Codec ID/Info                            : Picture based subtitle format used on BDs/HD-DVDs
Duration                                 : 1 h 29 min
Bit rate                                 : 4 426 b/s
Count of elements                        : 203
Stream size                              : 2.85 MiB (0%)
Language                                 : English
Default                                  : No
Forced                                   : No

Menu
00:00:00.000                             : en:Chapter 01
00:05:09.976                             : en:Chapter 02
00:08:39.728                             : en:Chapter 03
00:15:10.118                             : en:Chapter 04
00:21:15.274                             : en:Chapter 05
00:30:02.259                             : en:Chapter 06
00:39:11.182                             : en:Chapter 07
00:46:00.758                             : en:Chapter 08
00:54:15.878                             : en:Chapter 09
01:04:45.632                             : en:Chapter 10
01:16:17.323                             : en:Chapter 11
01:23:47.439                             : en:Chapter 12
[/url]



                                                                                                                                                                                                        
                                                                                                                                                                                                                                                                                                                                                                                                                                                                                                                                                                                                                                                                                                                                                                                                                                                        
c5e4e0bb4952c1eb802687e5a7f7fd31.zip (35.9 KB, 下载次数: 8)

回复

使用道具 举报

小黑屋|磁力链接吧 |网站地图

本网站所有资源来自网络,如无意中侵犯了您的权益,请发邮件至 [email protected],立即清除相关链接

GMT+8, 2021-4-16 07:27 , Processed in 0.097593 second(s), 22 queries .

Powered by Discuz! X3.2

© 2001-2013 Comsenz Inc.

快速回复 返回顶部 返回列表