磁力链接吧

 找回密码
 立即注册
搜索

睡美人之终/睡美人的界限 The.Limit.of.Sleeping.Beauty.2017.720p.Blu...

[复制链接]
百度云资源 发表于 2021-3-1 15:35:26 | 显示全部楼层 |阅读模式
-->
帖子完整标题:睡美人之终/睡美人的界限 The.Limit.of.Sleeping.Beauty.2017.720p.BluRay.x264-YAMG 3.54GB


[/url]

◎译  名 睡美人之终/睡美人的界限/裸睡美人(台)
◎片  名 THE LIMIT OF SLEEPING BEAUTY リミット?オブ?スリーピング ビューティ
◎年  代 2017
◎产  地 日本
◎类  别 爱情
◎语  言 日语
◎上映日期 2017-10-21(日本)
◎IMDb评分  5.7/10 from 120 users
◎  
◎豆瓣评分 6.0/10 from 1656 users
◎ 
◎片  长 90分钟
◎导  演 二宫健 Ken Ninomiya
◎编  剧 二宫健 Ken Ninomiya
◎主  演 樱井由纪 Yuki Sakurai
       高桥一生 Issey Takahashi
       成田凌 Ryo Narita
       满岛真之介 Shin'nosuke Mitsushima
       阿部纯子 Abe Junko
       山谷初男 Hatsuo Yamaya
       古畑新之 Niino Furuhata
       円谷优希 Yuki Tsumuraya

◎标  签 日本 | 高桥一生 | 爱情 | 2017 | 迷幻 | 樱井由纪 | 二宫健 | 成田凌

◎简  介

  亚纪(樱井由纪 饰)从小的梦想就是成为集万众瞩目于一身的明星,然而随着年龄渐渐长大,亚纪开始明白,这个梦想并不如看上去的那样光鲜亮丽。为了实现自己的梦想,亚纪孤身一人来到东京,却遭遇冰冷惨烈的现实,最终,在地下俱乐部老板海斗(高桥一生 饰)的介绍下,走投无路的亚纪进入马戏团工作,成为了魔术师的助理。
  
  每天入夜,亚纪都会穿上她的专属礼服,在魔术师的催眠下进入幻想中的世界,亚纪感到,只有在这一刻,她离她的梦想才是最接近的。与此同时,在幻想世界中,亚纪见到了已经离开她的恋人,重温了过去美好的时光,渐渐地,她开始分不清现实与幻想的界限。
Video
ID                                       : 1
Format                                   : AVC
Format/Info                              : Advanced Video Codec
Format profile                           :
Format settings                          : CABAC / 12 Ref Frames
Format settings, CABAC                   : Yes
Format settings, Reference frames        : 12 frames
Codec ID                                 : V_MPEG4/ISO/AVC
Duration                                 : 1 h 30 min
Bit rate                                 : 4 952 kb/s
Width                                    : 1 280 pixels
Height                                   : 534 pixels
Display aspect ratio                     : 2.40:1
Frame rate mode                          : Constant
Frame rate                               : 23.976 (24000/1001/189150) FPS
Color space                              : YUV
Chroma subsampling                       : 4:2:0
Bit depth                                : 8 bits
Scan type                                : Progressive
Bits/(Pixel*Frame)                       : 0.302
Stream size                              : 3.12 GiB (88%)
Writing library                          : x264 core 161 r3043 59c0609
Encoding settings                        : cabac=1 / ref=12 / deblock=1:-3:-3 / analyse=0x3:0x133 / me=umh / subme=10 / psy=1 / psy_rd=1.00:0.00 / mixed_ref=1 / me_range=32 / chroma_me=1 / trellis=2 / 8x8dct=1 / cqm=0 / deadzone=21,11 / fast_pskip=0 / chroma_qp_offset=-2 / threads=17 / lookahead_threads=2 / sliced_threads=0 / nr=0 / decimate=0 / interlaced=0 / bluray_compat=0 / constrained_intra=0 / bframes=8 / b_pyramid=2 / b_adapt=2 / b_bias=0 / direct=3 / weightb=1 / open_gop=0 / weightp=2 / keyint=250 / keyint_min=23 / scenecut=40 / intra_refresh=0 / rc=crf / mbtree=0 / crf=16.0 / qcomp=0.60 / qpmin=0 / qpmax=69 / qpstep=4 / ip_ratio=1.40 / pb_ratio=1.30 / aq=3:0.60
Language                                 : English
Default                                  : Yes
Forced                                   : No
Color range                              : Limited
Matrix coefficients                      : BT.709

Audio
ID                                       : 2
Format                                   : AC-3
Format/Info                              : Audio Coding 3
Commercial name                          : Dolby Digital
Codec ID                                 : A_AC3
Duration                                 : 1 h 30 min
Bit rate mode                            : Constant
Bit rate                                 : 640 kb/s
Channel(s)                               : 6 channels
Channel layout                           : L R C LFE Ls Rs
Sampling rate                            : 48.0 kHz
Frame rate                               : 31.250 FPS (1536 SPF)
Compression mode                         : Lossy
Stream size                              : 413 MiB (11%)
Title                                    : Japanese
Language                                 : Japanese
Service kind                             : Complete Main
Default                                  : Yes
Forced                                   : No

Text #1
ID                                       : 3
Format                                   : UTF-8
Codec ID                                 : S_TEXT/UTF8
Codec ID/Info                            : UTF-8 Plain Text
Duration                                 : 1 h 23 min
Bit rate                                 : 22 b/s
Count of elements                        : 588
Stream size                              : 14.1 KiB (0%)
Title                                    : English Forced
Language                                 : English
Default                                  : Yes
Forced                                   : Yes

Text #2
ID                                       : 4
Format                                   : PGS
Muxing mode                              : zlib
Codec ID                                 : S_HDMV/PGS
Codec ID/Info                            : Picture based subtitle format used on BDs/HD-DVDs
Duration                                 : 1 h 25 min
Bit rate                                 : 15.2 kb/s
Count of elements                        : 1249
Stream size                              : 9.29 MiB (0%)
Title                                    : English PGS
Language                                 : English
Default                                  : No
Forced                                   : No

Text #3
ID                                       : 5
Format                                   : PGS
Muxing mode                              : zlib
Codec ID                                 : S_HDMV/PGS
Codec ID/Info                            : Picture based subtitle format used on BDs/HD-DVDs
Duration                                 : 1 h 25 min
Bit rate                                 : 17.8 kb/s
Count of elements                        : 1317
Stream size                              : 10.9 MiB (0%)
Title                                    : Traditional Chinese PGS
Language                                 : Chinese
Default                                  : No
Forced                                   : No

Text #4
ID                                       : 6
Format                                   : PGS
Muxing mode                              : zlib
Codec ID                                 : S_HDMV/PGS
Codec ID/Info                            : Picture based subtitle format used on BDs/HD-DVDs
Duration                                 : 1 h 25 min
Bit rate                                 : 16.5 kb/s
Count of elements                        : 1317
Stream size                              : 10.1 MiB (0%)
Title                                    : Simplified Chinese PGS
Language                                 : Chinese
Default                                  : No
Forced                                   : No

Menu
00:00:00.000                             : en:Chapter 01
00:03:56.570                             : en:Chapter 02
00:08:27.465                             : en:Chapter 03
00:12:57.026                             : en:Chapter 04
00:17:20.164                             : en:Chapter 05
00:21:51.101                             : en:Chapter 06
00:24:24.046                             : en:Chapter 07
00:28:41.011                             : en:Chapter 08
00:32:14.641                             : en:Chapter 09
00:37:01.594                             : en:Chapter 10
00:41:11.886                             : en:Chapter 11
00:45:00.990                             : en:Chapter 12
00:49:57.286                             : en:Chapter 13
00:57:43.418                             : en:Chapter 14
01:01:14.921                             : en:Chapter 15
01:06:04.002                             : en:Chapter 16
01:12:31.514                             : en:Chapter 17
01:16:49.230                             : en:Chapter 18
01:19:51.954                             : en:Chapter 19
01:26:46.201                             : en:Chapter 20
[/url]



                                                                                                                                                                                                        
                                                                                                                                                                                                                                                                                                                                                                                                                                                                                                                                                                                                                                                                                                                                                                                                                                                        
43cd94040f72aca1080693baffcde13f.zip (36.11 KB, 下载次数: 11)

回复

使用道具 举报

小黑屋|磁力链接吧 |网站地图

本网站所有资源来自网络,如无意中侵犯了您的权益,请发邮件至 [email protected],立即清除相关链接

GMT+8, 2021-4-16 08:22 , Processed in 0.158278 second(s), 22 queries .

Powered by Discuz! X3.2

© 2001-2013 Comsenz Inc.

快速回复 返回顶部 返回列表