磁力链接吧

 找回密码
 立即注册
搜索

合约谋杀案/契约谋杀 Murder.by.Contract.1958.720p.BluRay.x264-ORBS 4....

[复制链接]
百度云资源 发表于 2021-3-1 15:35:26 | 显示全部楼层 |阅读模式
-->
帖子完整标题:合约谋杀案/契约谋杀 Murder.by.Contract.1958.720p.BluRay.x264-ORBS 4.71GB


[/url]

◎译  名 合约谋杀案/契约谋杀
◎片  名 Murder by Contract
◎年  代 1958
◎产  地 美国
◎类  别 剧情 / 惊悚 / 犯罪 / 黑色电影
◎语  言 英语
◎上映日期 1959-05-15
◎IMDb评分  7.3/10 from 2993 users
◎  
◎豆瓣评分 7.8/10 from 677 users
◎ 
◎片  长 81 分钟
◎导  演 欧文·勒纳 Irving Lerner
◎主  演 文斯·爱德华兹 Vince Edwards
       菲利普·潘恩 Phillip Pine
       Kathie Browne
       赫歇尔·伯纳迪 Herschel Bernardi
       迈克尔·格兰杰 Michael Granger
       Joseph Mell
       Caprice Toriel

◎标  签 美国 | 黑色电影 | 犯罪 | 1950s | 美国电影 | 黑色 | 1959 | 黑白

◎简  介

  Claude is a self-made hitman who gets picked up by the big boys to handle a troublesome witness. But the job turns out to be a little more difficult than he expects...
Video
ID                                       : 1
Format                                   : AVC
Format/Info                              : Advanced Video Codec
Format profile                           :
Format settings                          : CABAC / 9 Ref Frames
Format settings, CABAC                   : Yes
Format settings, Reference frames        : 9 frames
Codec ID                                 : V_MPEG4/ISO/AVC
Duration                                 : 1 h 20 min
Bit rate                                 : 7 626 kb/s
Width                                    : 1 280 pixels
Height                                   : 694 pixels
Display aspect ratio                     : 1.85:1
Frame rate mode                          : Constant
Frame rate                               : 23.976 (24000/1001/189150) FPS
Color space                              : YUV
Chroma subsampling                       : 4:2:0
Bit depth                                : 8 bits
Scan type                                : Progressive
Bits/(Pixel*Frame)                       : 0.358
Stream size                              : 4.29 GiB (91%)
Writing library                          : x264 core 161 r3043 59c0609
Encoding settings                        : cabac=1 / ref=9 / deblock=1:-3:-3 / analyse=0x3:0x133 / me=umh / subme=10 / psy=1 / psy_rd=1.50:0.15 / mixed_ref=1 / me_range=24 / chroma_me=1 / trellis=2 / 8x8dct=1 / cqm=0 / deadzone=21,11 / fast_pskip=0 / chroma_qp_offset=-3 / threads=6 / lookahead_threads=1 / sliced_threads=0 / nr=0 / decimate=0 / interlaced=0 / bluray_compat=0 / constrained_intra=0 / bframes=8 / b_pyramid=2 / b_adapt=2 / b_bias=0 / direct=3 / weightb=1 / open_gop=0 / weightp=2 / keyint=250 / keyint_min=23 / scenecut=40 / intra_refresh=0 / rc_lookahead=60 / rc=crf / mbtree=1 / crf=22.0 / qcomp=0.60 / qpmin=0 / qpmax=69 / qpstep=4 / ip_ratio=1.40 / aq=3:0.50
Default                                  : Yes
Forced                                   : No
Color range                              : Limited
Matrix coefficients                      : BT.709

Audio #1
ID                                       : 2
Format                                   : FLAC
Format/Info                              : Free Lossless Audio Codec
Codec ID                                 : A_FLAC
Duration                                 : 1 h 20 min
Bit rate mode                            : Variable
Bit rate                                 : 634 kb/s
Channel(s)                               : 1 channel
Channel layout                           : C
Sampling rate                            : 48.0 kHz
Frame rate                               : 11.719 FPS (4096 SPF)
Bit depth                                : 24 bits
Compression mode                         : Lossless
Stream size                              : 365 MiB (8%)
Writing library                          : libFLAC 1.3.2 (UTC 2017-01-01)
Language                                 : English
Default                                  : Yes
Forced                                   : No

Audio #2
ID                                       : 3
Format                                   : AAC LC
Format/Info                              : Advanced Audio Codec Low Complexity
Codec ID                                 : A_AAC-2
Duration                                 : 1 h 20 min
Bit rate                                 : 107 kb/s
Channel(s)                               : 2 channels
Channel layout                           : L R
Sampling rate                            : 48.0 kHz
Frame rate                               : 46.875 FPS (1024 SPF)
Compression mode                         : Lossy
Delay relative to video                  : 20 ms
Stream size                              : 61.5 MiB (1%)
Title                                    : Commentary
Language                                 : English
Default                                  : No
Forced                                   : No

Text
ID                                       : 4
Format                                   : PGS
Muxing mode                              : zlib
Codec ID                                 : S_HDMV/PGS
Codec ID/Info                            : Picture based subtitle format used on BDs/HD-DVDs
Duration                                 : 1 h 18 min
Bit rate                                 : 44.4 kb/s
Count of elements                        : 2352
Stream size                              : 25.1 MiB (1%)
Title                                    : SDH
Language                                 : English
Default                                  : No
Forced                                   : No

Menu
00:00:00.000                             : en:Chapter 01
00:08:07.362                             : en:Chapter 02
00:16:22.565                             : en:Chapter 03
00:23:55.517                             : en:Chapter 04
00:33:01.521                             : en:Chapter 05
00:41:45.128                             : en:Chapter 06
00:48:10.763                             : en:Chapter 07
00:56:05.153                             : en:Chapter 08
01:05:40.854                             : en:Chapter 09
01:14:29.674                             : en:Chapter 10




                                                                                                                                                                                                        
                                                                                                                                                                                                                                                                                                                                                                                                                                                                                                                                                                                                                                                                                                                                                                                                                                                        
baf7ec5b28761aa9f17bcb632fd871da.zip (47.83 KB, 下载次数: 3)

回复

使用道具 举报

小黑屋|磁力链接吧 |网站地图

本网站所有资源来自网络,如无意中侵犯了您的权益,请发邮件至 [email protected],立即清除相关链接

GMT+8, 2021-4-20 07:55 , Processed in 0.118392 second(s), 22 queries .

Powered by Discuz! X3.2

© 2001-2013 Comsenz Inc.

快速回复 返回顶部 返回列表