磁力链接吧

 找回密码
 立即注册
搜索

诺亚方舟法则 The.Noahs.Ark.Principle.1984.720p.BluRay.x264-GUACAMOLE 3....

[复制链接]
百度云资源 发表于 2021-3-1 15:35:26 | 显示全部楼层 |阅读模式
-->
帖子完整标题:诺亚方舟法则 The.Noahs.Ark.Principle.1984.720p.BluRay.x264-GUACAMOLE 3.48GB


[/url]

◎译  名 诺亚方舟法则
◎片  名 Arche Noah Prinzip, Das
◎年  代 1984
◎产  地 西德
◎类  别 科幻
◎语  言 德语
◎上映日期 1985-03-22
◎IMDb评分  4.9/10 from 824 users
◎  
◎豆瓣评分 /10 from 0 users
◎ 
◎片  长 100 分钟
◎导  演 罗兰·艾默里奇 Roland Emmerich
◎编  剧 罗兰·艾默里奇 Roland Emmerich
◎主  演 马蒂亚斯·富克斯 Matthias Fuchs
       里奇·穆勒 Richy Müller
       弗朗茨·布赫里泽 Franz Buchrieser
       Nikolas Lansky
       Aviva Joel

◎标  签 罗兰·艾默里奇 | 科幻 | 艾默里奇 | 德国 | 西德 | 罗兰 | Roland_Emmerich | (电脑)

◎简  介

  Near the end of the 20th century, WMDs (weapons of mass destruction) are retired. However, certain factions plan to use a science space station as a weapon against each other. The astronauts inside will decide the world's fate.

◎获奖情况

  第34届柏林国际电影节 ?(1984)
  金熊奖最佳影片(提名) 罗兰·艾默里奇
Video
ID                                       : 1
Format                                   : AVC
Format/Info                              : Advanced Video Codec
Format profile                           :
Format settings                          : CABAC / 8 Ref Frames
Format settings, CABAC                   : Yes
Format settings, Reference frames        : 8 frames
Codec ID                                 : V_MPEG4/ISO/AVC
Duration                                 : 1 h 40 min
Bit rate                                 : 4 322 kb/s
Width                                    : 1 280 pixels
Height                                   : 522 pixels
Display aspect ratio                     : 2.452
Frame rate mode                          : Constant
Frame rate                               : 23.976 (24000/1001/189150) FPS
Color space                              : YUV
Chroma subsampling                       : 4:2:0
Bit depth                                : 8 bits
Scan type                                : Progressive
Bits/(Pixel*Frame)                       : 0.270
Stream size                              : 3.02 GiB (87%)
Writing library                          : x264 core 161 r3048 b86ae3c
Encoding settings                        : cabac=1 / ref=8 / deblock=1:-3:-3 / analyse=0x3:0x133 / me=umh / subme=9 / psy=1 / psy_rd=1.00:0.00 / mixed_ref=1 / me_range=16 / chroma_me=1 / trellis=2 / 8x8dct=1 / cqm=0 / deadzone=21,11 / fast_pskip=0 / chroma_qp_offset=-2 / threads=16 / lookahead_threads=1 / sliced_threads=0 / nr=0 / decimate=1 / interlaced=0 / bluray_compat=0 / constrained_intra=0 / bframes=3 / b_pyramid=2 / b_adapt=2 / b_bias=0 / direct=3 / weightb=1 / open_gop=0 / weightp=2 / keyint=250 / keyint_min=23 / scenecut=40 / intra_refresh=0 / rc_lookahead=60 / rc=crf / mbtree=1 / crf=17.0 / qcomp=0.60 / qpmin=0 / qpmax=69 / qpstep=4 / ip_ratio=1.40 / aq=3:0.60
Default                                  : Yes
Forced                                   : No
Color range                              : Limited
Matrix coefficients                      : BT.709

Audio
ID                                       : 2
Format                                   : AC-3
Format/Info                              : Audio Coding 3
Commercial name                          : Dolby Digital
Codec ID                                 : A_AC3
Duration                                 : 1 h 40 min
Bit rate mode                            : Constant
Bit rate                                 : 640 kb/s
Channel(s)                               : 6 channels
Channel layout                           : L R C LFE Ls Rs
Sampling rate                            : 48.0 kHz
Frame rate                               : 31.250 FPS (1536 SPF)
Compression mode                         : Lossy
Stream size                              : 458 MiB (13%)
Language                                 : German
Service kind                             : Complete Main
Default                                  : Yes
Forced                                   : No

Text #1
ID                                       : 3
Format                                   : UTF-8
Codec ID                                 : S_TEXT/UTF8
Codec ID/Info                            : UTF-8 Plain Text
Duration                                 : 1 h 31 min
Bit rate                                 : 48 b/s
Count of elements                        : 862
Stream size                              : 32.5 KiB (0%)
Language                                 : English
Default                                  : Yes
Forced                                   : Yes

Text #2
ID                                       : 4
Format                                   : PGS
Muxing mode                              : zlib
Codec ID                                 : S_HDMV/PGS
Codec ID/Info                            : Picture based subtitle format used on BDs/HD-DVDs
Duration                                 : 1 h 35 min
Bit rate                                 : 21.4 kb/s
Count of elements                        : 1725
Stream size                              : 14.6 MiB (0%)
Title                                    : Vobsubs
Language                                 : English
Default                                  : No
Forced                                   : No

Text #3
ID                                       : 5
Format                                   : PGS
Muxing mode                              : zlib
Codec ID                                 : S_HDMV/PGS
Codec ID/Info                            : Picture based subtitle format used on BDs/HD-DVDs
Duration                                 : 1 h 35 min
Bit rate                                 : 28.2 kb/s
Count of elements                        : 2265
Stream size                              : 19.2 MiB (1%)
Title                                    : Vobsubs
Language                                 : German
Default                                  : No
Forced                                   : No

Menu
00:00:00.000                             : en:00:00:00.000
00:14:52.558                             : en:00:14:52.558
00:30:06.638                             : en:00:30:06.638
00:44:53.149                             : en:00:44:53.149
00:59:35.238                             : en:00:59:35.238
01:15:05.459                             : en:01:15:05.459
01:28:48.490                             : en:01:28:48.490
01:35:58.544                             : en:01:35:58.544
[/url]



                                                                                                                                                                                                        
                                                                                                                                                                                                                                                                                                                                                                                                                                                                                                                                                                                                                                                                                                                                                                                                                                                        
2275b79cfcf1fe41566c13ecf51cb099.zip (35.52 KB, 下载次数: 14)

回复

使用道具 举报

小黑屋|磁力链接吧 |网站地图

本网站所有资源来自网络,如无意中侵犯了您的权益,请发邮件至 [email protected],立即清除相关链接

GMT+8, 2021-4-16 11:12 , Processed in 0.134393 second(s), 22 queries .

Powered by Discuz! X3.2

© 2001-2013 Comsenz Inc.

快速回复 返回顶部 返回列表