磁力链接吧

 找回密码
 立即注册
搜索

傅满洲的脸 The.Face.of.Fu.Manchu.1965.720p.BluRay.x264-GAZER 6.22GB

[复制链接]
百度云资源 发表于 2021-3-1 15:35:26 | 显示全部楼层 |阅读模式
-->
帖子完整标题:傅满洲的脸 The.Face.of.Fu.Manchu.1965.720p.BluRay.x264-GAZER 6.22GB


[/url]

◎译  名 傅满洲的脸
◎片  名 The Face of Fu Manchu
◎年  代 1965
◎产  地 英国,西德
◎类  别 剧情 / 动作 / 惊悚 / 犯罪
◎语  言 英语
◎上映日期 1965-08-06
◎IMDb评分  5.9/10 from 1505 users
◎  
◎豆瓣评分 4.4/10 from 177 users
◎ 
◎片  长 89 分钟
◎导  演 唐·夏普 Don Sharp
◎编  剧 哈利·阿兰·托尔斯 Harry Alan Towers / 萨克斯·儒默 Sax Rohmer
◎主  演 克里斯托弗·李 Christopher Lee
       奈杰尔·格林 Nigel Green
       约阿希姆·富克斯贝格 Joachim Fuchsberger
       詹姆斯·罗伯逊·贾斯蒂 James Robertson Justice
       霍华德·马里昂-克劳福德 Howard Marion-Crawford
       周采芹 Tsai Chin
       沃尔特·瑞拉 Walter Rilla
       Edwin Richfield
       Peter Mosbacher
       吉姆·诺顿 Jim Norton
       卡琳·多 Karin Dor
       乔·林奇 Joe Lynch

◎标  签 傅满洲 | 英国 | 1965 | 英国电影 | 惊悚 | 恐怖 | 犯罪 | fumanchu

◎简  介

  Grisly strangulations in London alert Nayland Smith of Scotland Yard to the possibility that fiendish Fu Manchu may not after all be dead, even though Smith witnessed his execution. A killer spray made from Tibetan berries seems to be involved and clues keep leading back to the Thames.
Video
ID                                       : 1
Format                                   : AVC
Format/Info                              : Advanced Video Codec
Format profile                           :
Format settings                          : CABAC / 12 Ref Frames
Format settings, CABAC                   : Yes
Format settings, Reference frames        : 12 frames
Codec ID                                 : V_MPEG4/ISO/AVC
Duration                                 : 1 h 36 min
Bit rate                                 : 8 883 kb/s
Width                                    : 1 280 pixels
Height                                   : 544 pixels
Display aspect ratio                     : 2.35:1
Frame rate mode                          : Constant
Frame rate                               : 23.976 (24000/1001/189150) FPS
Color space                              : YUV
Chroma subsampling                       : 4:2:0
Bit depth                                : 8 bits
Scan type                                : Progressive
Bits/(Pixel*Frame)                       : 0.532
Stream size                              : 5.96 GiB (96%)
Writing library                          : x264 core 161 r3043 59c0609
Encoding settings                        : cabac=1 / ref=12 / deblock=1:-3:-3 / analyse=0x3:0x133 / me=umh / subme=10 / psy=1 / psy_rd=1.50:0.15 / mixed_ref=1 / me_range=24 / chroma_me=1 / trellis=2 / 8x8dct=1 / cqm=0 / deadzone=21,11 / fast_pskip=0 / chroma_qp_offset=-3 / threads=6 / lookahead_threads=1 / sliced_threads=0 / nr=0 / decimate=0 / interlaced=0 / bluray_compat=0 / constrained_intra=0 / bframes=8 / b_pyramid=2 / b_adapt=2 / b_bias=0 / direct=3 / weightb=1 / open_gop=0 / weightp=2 / keyint=250 / keyint_min=23 / scenecut=40 / intra_refresh=0 / rc_lookahead=60 / rc=crf / mbtree=1 / crf=18.0 / qcomp=0.60 / qpmin=0 / qpmax=69 / qpstep=4 / ip_ratio=1.40 / aq=3:0.50
Default                                  : Yes
Forced                                   : No
Color range                              : Limited
Matrix coefficients                      : BT.709

Audio #1
ID                                       : 2
Format                                   : FLAC
Format/Info                              : Free Lossless Audio Codec
Codec ID                                 : A_FLAC
Duration                                 : 1 h 36 min
Bit rate mode                            : Variable
Bit rate                                 : 233 kb/s
Channel(s)                               : 1 channel
Channel layout                           : C
Sampling rate                            : 48.0 kHz
Frame rate                               : 11.719 FPS (4096 SPF)
Bit depth                                : 16 bits
Compression mode                         : Lossless
Stream size                              : 160 MiB (3%)
Writing library                          : libFLAC 1.3.2 (UTC 2017-01-01)
Language                                 : English
Default                                  : Yes
Forced                                   : No

Audio #2
ID                                       : 3
Format                                   : AAC LC
Format/Info                              : Advanced Audio Codec Low Complexity
Codec ID                                 : A_AAC-2
Duration                                 : 1 h 36 min
Bit rate                                 : 141 kb/s
Channel(s)                               : 2 channels
Channel layout                           : L R
Sampling rate                            : 48.0 kHz
Frame rate                               : 46.875 FPS (1024 SPF)
Compression mode                         : Lossy
Delay relative to video                  : 20 ms
Stream size                              : 96.8 MiB (2%)
Title                                    : Commentary
Language                                 : English
Default                                  : No
Forced                                   : No

Text
ID                                       : 4
Format                                   : PGS
Muxing mode                              : zlib
Codec ID                                 : S_HDMV/PGS
Codec ID/Info                            : Picture based subtitle format used on BDs/HD-DVDs
Duration                                 : 1 h 35 min
Bit rate                                 : 33.1 kb/s
Count of elements                        : 2193
Stream size                              : 22.6 MiB (0%)
Title                                    : SDH
Language                                 : English
Default                                  : No
Forced                                   : No

Menu
00:00:00.000                             : en:Chapter 01
00:10:08.024                             : en:Chapter 02
00:17:49.944                             : en:Chapter 03
00:28:03.473                             : en:Chapter 04
00:38:24.469                             : en:Chapter 05
00:49:34.930                             : en:Chapter 06
00:59:40.786                             : en:Chapter 07
01:09:21.366                             : en:Chapter 08
01:18:26.952                             : en:Chapter 09
01:26:33.271                             : en:Chapter 10
[/url]



                                                                                                                                                                                                        
                                                                                                                                                                                                                                                                                                                                                                                                                                                                                                                                                                                                                                                                                                                                                                                                                                                        
104a4f1cb40f9084d132274a161ae47e.zip (31.81 KB, 下载次数: 2)

回复

使用道具 举报

小黑屋|磁力链接吧 |网站地图

本网站所有资源来自网络,如无意中侵犯了您的权益,请发邮件至 [email protected],立即清除相关链接

GMT+8, 2021-4-19 19:53 , Processed in 0.102348 second(s), 22 queries .

Powered by Discuz! X3.2

© 2001-2013 Comsenz Inc.

快速回复 返回顶部 返回列表