磁力链接吧

 找回密码
 立即注册
搜索

爱的艺术/良缘巧遇 The.Art.of.Love.1965.720p.BluRay.x264-GUACAMOLE 5.16GB

[复制链接]
百度云资源 发表于 2021-3-1 15:35:26 | 显示全部楼层 |阅读模式
-->
帖子完整标题:爱的艺术/良缘巧遇 The.Art.of.Love.1965.720p.BluRay.x264-GUACAMOLE 5.16GB


[/url]

◎译  名 爱的艺术/良缘巧遇
◎片  名 The Art of Love
◎年  代 1965
◎产  地 美国
◎类  别 喜剧
◎语  言 英语,法语
◎上映日期 1965
◎IMDb评分  6.3/10 from 619 users
◎  
◎豆瓣评分 /10 from 0 users
◎ 
◎片  长 99 分钟
◎导  演 诺曼·杰威森 Norman Jewison
◎编  剧 理查德·艾伦·西蒙斯 Richard Alan Simmons / 威廉·沙克海姆 William Sackheim / 卡尔·雷纳 Carl Reiner
◎主  演 詹姆斯·加纳 James Garner
       迪克·范·戴克 Dick Van Dyke
       艾尔克·萨默 Elke Sommer
       安吉·迪金森 Angie Dickinson
       埃塞尔·默尔曼 Ethel Merman
       Forbes Murray
       路易斯梅西埃 Louis Mercier
       皮埃尔·奥拉夫 Pierre Olaf
       保罗·普雷博伊斯特 Paul Préboist
       罗尔夫·塞丹 Rolfe Sedan
       Hal Taggart
       奥兰·索尔 Olan Soule
       娜奥米·史蒂文斯 Naomi Stevens
       Jay Novello
       南·马丁 Nan Martin
       莫里斯·马尔萨克 Maurice Marsac
       Brad Johnson
       高美以子 Miiko Taka
       卡尔·雷纳 Carl Reiner
       伦佐·切萨纳 Renzo Cesana
       利昂·贝拉斯科 Leon Belasco
       罗杰·C·卡梅尔 Roger C. Carmel
       让·德尔瓦尔 Jean Del Val
       马塞尔·希莱尔 Marcel Hillaire
       Irving Jacobson
       菲菲·德奥赛 Fifi D'Orsay

◎标  签 诺曼·杰威森 | 被忽视的片子 | 美国电影 | 美国 | 喜剧 | 7.8 | 1965 | ***1/2

◎简  介

  暂无相关剧情介绍
Video
ID                                       : 1
Format                                   : AVC
Format/Info                              : Advanced Video Codec
Format profile                           :
Format settings                          : CABAC / 4 Ref Frames
Format settings, CABAC                   : Yes
Format settings, Reference frames        : 4 frames
Codec ID                                 : V_MPEG4/ISO/AVC
Duration                                 : 1 h 39 min
Bit rate                                 : 7 001 kb/s
Width                                    : 1 280 pixels
Height                                   : 694 pixels
Display aspect ratio                     : 1.85:1
Frame rate mode                          : Constant
Frame rate                               : 24.000 FPS
Color space                              : YUV
Chroma subsampling                       : 4:2:0
Bit depth                                : 8 bits
Scan type                                : Progressive
Bits/(Pixel*Frame)                       : 0.328
Stream size                              : 4.84 GiB (94%)
Writing library                          : x264 core 161 r3048 b86ae3c
Encoding settings                        : cabac=1 / ref=4 / deblock=1:-3:-3 / analyse=0x3:0x133 / me=umh / subme=9 / psy=1 / psy_rd=1.00:0.00 / mixed_ref=1 / me_range=16 / chroma_me=1 / trellis=2 / 8x8dct=1 / cqm=0 / deadzone=21,11 / fast_pskip=0 / chroma_qp_offset=-2 / threads=22 / lookahead_threads=1 / sliced_threads=0 / nr=0 / decimate=1 / interlaced=0 / bluray_compat=0 / constrained_intra=0 / bframes=3 / b_pyramid=2 / b_adapt=2 / b_bias=0 / direct=3 / weightb=1 / open_gop=0 / weightp=2 / keyint=250 / keyint_min=24 / scenecut=40 / intra_refresh=0 / rc_lookahead=60 / rc=crf / mbtree=1 / crf=18.5 / qcomp=0.60 / qpmin=0 / qpmax=69 / qpstep=4 / ip_ratio=1.40 / aq=3:0.60
Default                                  : Yes
Forced                                   : No
Color range                              : Limited
Matrix coefficients                      : BT.709

Audio
ID                                       : 2
Format                                   : FLAC
Format/Info                              : Free Lossless Audio Codec
Codec ID                                 : A_FLAC
Duration                                 : 1 h 39 min
Bit rate mode                            : Variable
Bit rate                                 : 436 kb/s
Channel(s)                               : 2 channels
Channel layout                           : L R
Sampling rate                            : 48.0 kHz
Frame rate                               : 11.719 FPS (4096 SPF)
Bit depth                                : 16 bits
Compression mode                         : Lossless
Stream size                              : 309 MiB (6%)
Writing library                          : libFLAC 1.2.1 (UTC 2007-09-17)
Language                                 : English
Default                                  : Yes
Forced                                   : No

Text
ID                                       : 3
Format                                   : PGS
Muxing mode                              : zlib
Codec ID                                 : S_HDMV/PGS
Codec ID/Info                            : Picture based subtitle format used on BDs/HD-DVDs
Duration                                 : 1 h 35 min
Bit rate                                 : 48.5 kb/s
Count of elements                        : 2701
Stream size                              : 33.0 MiB (1%)
Title                                    : Vobsubs
Language                                 : German
Default                                  : No
Forced                                   : No

Menu
00:00:00.000                             : en:00:00:00.000
00:07:45.667                             : en:00:07:45.667
00:12:55.000                             : en:00:12:55.000
00:18:31.292                             : en:00:18:31.292
00:25:13.167                             : en:00:25:13.167
00:33:20.208                             : en:00:33:20.208
00:39:52.708                             : en:00:39:52.708
00:47:53.167                             : en:00:47:53.167
00:54:09.125                             : en:00:54:09.125
00:58:39.458                             : en:00:58:39.458
01:10:17.750                             : en:01:10:17.750
01:15:38.875                             : en:01:15:38.875
01:22:09.417                             : en:01:22:09.417
01:30:08.750                             : en:01:30:08.750
01:35:43.833                             : en:01:35:43.833
01:37:26.500                             : en:01:37:26.500
[/url]



                                                                                                                                                                                                        
                                                                                                                                                                                                                                                                                                                                                                                                                                                                                                                                                                                                                                                                                                                                                                                                                                                        
f68593bd4c6aaeb236f9e87d3c1b22cc.zip (26.48 KB, 下载次数: 12)

回复

使用道具 举报

小黑屋|磁力链接吧 |网站地图

本网站所有资源来自网络,如无意中侵犯了您的权益,请发邮件至 [email protected],立即清除相关链接

GMT+8, 2021-4-16 11:22 , Processed in 0.174752 second(s), 22 queries .

Powered by Discuz! X3.2

© 2001-2013 Comsenz Inc.

快速回复 返回顶部 返回列表