磁力链接吧

 找回密码
 立即注册
搜索

暴力旅者 Violence.Voyager.2018.1080p.BluRay.x264-ORBS 5.84GB

[复制链接]
百度云资源 发表于 2021-3-1 15:15:07 | 显示全部楼层 |阅读模式
-->
帖子完整标题:暴力旅者 Violence.Voyager.2018.1080p.BluRay.x264-ORBS 5.84GB


[/url]

◎译  名 暴力旅者/Violence Voyager
◎片  名 バイオレンス?ボイジャー
◎年  代 2018
◎产  地 日本
◎类  别 喜剧 / 动画 / 恐怖 / 奇幻 / 冒险
◎语  言 日语
◎上映日期 2019-05-24(日本)
◎IMDb评分  6.7/10 from 208 users
◎  
◎豆瓣评分 /10 from 0 users
◎ 
◎片  长 83分钟
◎导  演 宇治茶 Ujicha
◎编  剧 宇治茶 Ujicha
◎主  演 悠木碧 Aoi Yuki
       田中直树 Naoki Tanaka
       藤田咲 Saki Fujita
       高桥茂雄 Shigeo Takahashi
       小野大辅 Daisuke Ono
       田口智朗 Tomorowo Taguchi
       松本人志 Hitoshi Matsumoto

◎标  签 日本 | 动画 | 日本动画 | 2018 | 日本电影 | cartoon | Ujicha | Coming

◎简  介

  Following an end-of-term school ceremony, the American boy Bobby decides to go with his friend Akkun into the mountains outside their village, to a place perfect for a secret base. On the way they stop into a mysterious amusement park. They have fun there, but are attacked and cannot leave. Falling in with some other children who are also lost there, they fend off a number of attacks, and gradually learn the truth behind the facility. It was put there by a man named Koike as a trap for passing children. His son Takashi needs to feed on human children in order to survive. Akkun is killed, and Bobby is captured with Tokiko, a girl they have met there. She disappears, and Koike goes to work on Bobby, trying to fatten him up. Bobby manages to escape. With the help of Saruyoshi, a mysterious old hermit, and the animals of the forest, Bobby builds up his strength and returns to the facility in an attempt to save Tokiko.——IMDb
Video
ID                                       : 1
Format                                   : AVC
Format/Info                              : Advanced Video Codec
Format profile                           :
Format settings                          : CABAC / 4 Ref Frames
Format settings, CABAC                   : Yes
Format settings, Reference frames        : 4 frames
Codec ID                                 : V_MPEG4/ISO/AVC
Duration                                 : 1 h 23 min
Bit rate                                 : 9 508 kb/s
Width                                    : 1 920 pixels
Height                                   : 1 080 pixels
Display aspect ratio                     : 16:9
Frame rate mode                          : Constant
Frame rate                               : 23.976 (24000/1001/189150) FPS
Color space                              : YUV
Chroma subsampling                       : 4:2:0
Bit depth                                : 8 bits
Scan type                                : Progressive
Bits/(Pixel*Frame)                       : 0.191
Stream size                              : 5.54 GiB (95%)
Writing library                          : x264 core 161 r3043 59c0609
Encoding settings                        : cabac=1 / ref=4 / deblock=1:1:1 / analyse=0x3:0x133 / me=umh / subme=10 / psy=1 / psy_rd=0.60:0.00 / mixed_ref=1 / me_range=24 / chroma_me=1 / trellis=2 / 8x8dct=1 / cqm=0 / deadzone=21,11 / fast_pskip=0 / chroma_qp_offset=-2 / threads=24 / lookahead_threads=6 / sliced_threads=0 / nr=0 / decimate=0 / interlaced=0 / bluray_compat=0 / constrained_intra=0 / bframes=10 / b_pyramid=2 / b_adapt=2 / b_bias=0 / direct=3 / weightb=1 / open_gop=0 / weightp=2 / keyint=250 / keyint_min=23 / scenecut=40 / intra_refresh=0 / rc_lookahead=60 / rc=crf / mbtree=1 / crf=16.0 / qcomp=0.60 / qpmin=0 / qpmax=69 / qpstep=4 / ip_ratio=1.40 / aq=3:1.10
Default                                  : Yes
Forced                                   : No
Color range                              : Limited
Matrix coefficients                      : BT.709

Audio #1
ID                                       : 2
Format                                   : FLAC
Format/Info                              : Free Lossless Audio Codec
Codec ID                                 : A_FLAC
Duration                                 : 1 h 23 min
Bit rate mode                            : Variable
Bit rate                                 : 330 kb/s
Channel(s)                               : 2 channels
Channel layout                           : L R
Sampling rate                            : 48.0 kHz
Frame rate                               : 11.719 FPS (4096 SPF)
Bit depth                                : 16 bits
Compression mode                         : Lossless
Stream size                              : 197 MiB (3%)
Writing library                          : libFLAC 1.3.2 (UTC 2017-01-01)
Language                                 : Japanese
Default                                  : Yes
Forced                                   : No

Audio #2
ID                                       : 3
Format                                   : AAC LC
Format/Info                              : Advanced Audio Codec Low Complexity
Codec ID                                 : A_AAC-2
Duration                                 : 1 h 23 min
Bit rate                                 : 108 kb/s
Channel(s)                               : 2 channels
Channel layout                           : L R
Sampling rate                            : 48.0 kHz
Frame rate                               : 46.875 FPS (1024 SPF)
Compression mode                         : Lossy
Delay relative to video                  : 20 ms
Stream size                              : 64.7 MiB (1%)
Title                                    : Commentary
Language                                 : English
Default                                  : No
Forced                                   : No

Text #1
ID                                       : 4
Format                                   : UTF-8
Codec ID                                 : S_TEXT/UTF8
Codec ID/Info                            : UTF-8 Plain Text
Duration                                 : 1 h 20 min
Bit rate                                 : 45 b/s
Count of elements                        : 967
Stream size                              : 26.8 KiB (0%)
Title                                    : English (Forced)
Language                                 : English
Default                                  : Yes
Forced                                   : Yes

Text #2
ID                                       : 5
Format                                   : PGS
Muxing mode                              : zlib
Codec ID                                 : S_HDMV/PGS
Codec ID/Info                            : Picture based subtitle format used on BDs/HD-DVDs
Duration                                 : 1 h 20 min
Bit rate                                 : 43.0 kb/s
Count of elements                        : 1898
Stream size                              : 24.6 MiB (0%)
Language                                 : English
Default                                  : No
Forced                                   : No

Text #3
ID                                       : 6
Format                                   : PGS
Muxing mode                              : zlib
Codec ID                                 : S_HDMV/PGS
Codec ID/Info                            : Picture based subtitle format used on BDs/HD-DVDs
Duration                                 : 1 h 23 min
Bit rate                                 : 67.1 kb/s
Count of elements                        : 2017
Stream size                              : 40.0 MiB (1%)
Title                                    : Commentary
Language                                 : English
Default                                  : No
Forced                                   : No

Menu
00:00:00.000                             : en:Chapter 01
00:05:22.405                             : en:Chapter 02
00:07:51.513                             : en:Chapter 03
00:11:52.629                             : en:Chapter 04
00:16:28.613                             : en:Chapter 05
00:20:45.953                             : en:Chapter 06
00:25:34.992                             : en:Chapter 07
00:29:36.024                             : en:Chapter 08
00:32:33.410                             : en:Chapter 09
00:39:37.625                             : en:Chapter 10
00:42:30.131                             : en:Chapter 11
00:47:03.195                             : en:Chapter 12
00:49:15.911                             : en:Chapter 13
00:53:09.478                             : en:Chapter 14
00:56:00.190                             : en:Chapter 15
00:58:55.449                             : en:Chapter 16
01:03:21.965                             : en:Chapter 17
01:07:39.264                             : en:Chapter 18
01:14:46.107                             : en:Chapter 19
01:20:41.336                             : en:Chapter 20
[/url]



                                                                                                                                                                                                        
                                                                                                                                                                                                                                                                                                                                                                                                                                                                                                                                                                                                                                                                                                                                                                                                                                                        
db6f7524fa70be8a5491a365877e9d47.zip (29.87 KB, 下载次数: 12)

回复

使用道具 举报

小黑屋|磁力链接吧 |网站地图

本网站所有资源来自网络,如无意中侵犯了您的权益,请发邮件至 [email protected],立即清除相关链接

GMT+8, 2021-4-20 09:10 , Processed in 0.110497 second(s), 22 queries .

Powered by Discuz! X3.2

© 2001-2013 Comsenz Inc.

快速回复 返回顶部 返回列表