磁力链接吧

 找回密码
 立即注册
搜索

穆戈尔·毛戈利 Mogul.Mowgli.2020.720p.BluRay.x264-SCARE 5.63GB

[复制链接]
百度云资源 发表于 2021-2-27 09:04:34 | 显示全部楼层 |阅读模式
-->
帖子完整标题:穆戈尔·毛戈利 Mogul.Mowgli.2020.720p.BluRay.x264-SCARE 5.63GB


[/url]

◎译  名 穆戈尔·毛戈利/Mughal Mowgli
◎片  名 Mogul Mowgli
◎年  代 2020
◎产  地 英国,美国
◎类  别 剧情 / 音乐
◎语  言 英语,乌尔都语
◎上映日期 2020-02-21(柏林电影节)
◎IMDb评分  6.7/10 from 1000 users
◎  
◎豆瓣评分 /10 from 0 users
◎ 
◎片  长 90分钟
◎导  演 巴萨姆·塔里克 Bassam Tariq
◎编  剧 巴萨姆·塔里克 Bassam Tariq / 里兹·阿迈德 Riz Ahmed
◎主  演 里兹·阿迈德 Riz Ahmed
       艾莎·哈特 Aiysha Hart
       纳巴汉·里兹万 Nabhaan Rizwan
       卡伦·索尼娅·塞沃尔 Kiran Sonia Sawar
       安贾纳·瓦桑 Anjana Vasan
       贾格·帕特尔 Jag Patel
       阿利·汗 Alyy Khan

◎标  签 英国 | 2020 | 剧情 | RizAhmed | 英国电影 | 音乐 | P-BerlinB入围全景单元 | Berlinale2020

◎简  介

  里兹·阿迈德将集主演、编剧、制片人于一身参与新片[穆戈尔·毛戈利](Mughal Mowgli,暂译)。该片将是纪录片导演Bassam Tariq([选举日])的剧情片处女作。影片将围绕一位英国籍巴基斯坦裔说唱歌手展开,在他第一次世界巡回演唱会的紧要关头,他却被一种表观遗传疾病打倒,而这种疾病很可能会毁掉他的演艺生涯。影片将于本月开始制作。

◎获奖情况

  第23届英国独立电影奖 ?(2020)
  最佳编剧(提名) 巴萨姆·塔里克?/?里兹·阿迈德
  最佳男主角(提名) 里兹·阿迈德
  最佳男配角(提名) 阿利·汗
  最佳新人编剧 里兹·阿迈德
  最佳摄影(提名)
  最佳音乐
  最佳音效(提名)
  
  第41届伦敦影评人协会奖 ?(2021)
  年度英国/爱尔兰男演员(提名) 里兹·阿迈德
  
  第24届美国在线影评人协会奖 ?(2021)
  最佳非北美上映影片
Video
ID                                       : 1
Format                                   : AVC
Format/Info                              : Advanced Video Codec
Format profile                           :
Format settings                          : CABAC / 12 Ref Frames
Format settings, CABAC                   : Yes
Format settings, Reference frames        : 12 frames
Codec ID                                 : V_MPEG4/ISO/AVC
Duration                                 : 1 h 29 min
Bit rate                                 : 8 264 kb/s
Width                                    : 960 pixels
Height                                   : 720 pixels
Display aspect ratio                     : 4:3
Frame rate mode                          : Constant
Frame rate                               : 23.976 (24000/1001/189150) FPS
Color space                              : YUV
Chroma subsampling                       : 4:2:0
Bit depth                                : 8 bits
Scan type                                : Progressive
Bits/(Pixel*Frame)                       : 0.499
Stream size                              : 5.15 GiB (92%)
Writing library                          : x264 core 161 r3043 59c0609
Encoding settings                        : cabac=1 / ref=12 / deblock=1:-3:-3 / analyse=0x3:0x133 / me=umh / subme=10 / psy=1 / psy_rd=1.20:0.00 / mixed_ref=1 / me_range=24 / chroma_me=1 / trellis=2 / 8x8dct=1 / cqm=0 / deadzone=21,11 / fast_pskip=0 / chroma_qp_offset=-2 / threads=6 / lookahead_threads=1 / sliced_threads=0 / nr=0 / decimate=0 / interlaced=0 / bluray_compat=0 / constrained_intra=0 / bframes=8 / b_pyramid=2 / b_adapt=2 / b_bias=0 / direct=3 / weightb=1 / open_gop=0 / weightp=2 / keyint=250 / keyint_min=23 / scenecut=40 / intra_refresh=0 / rc_lookahead=60 / rc=crf / mbtree=1 / crf=16.0 / qcomp=0.60 / qpmin=0 / qpmax=69 / qpstep=4 / ip_ratio=1.40 / aq=3:0.90
Default                                  : Yes
Forced                                   : No
Color range                              : Limited
Matrix coefficients                      : BT.709

Audio #1
ID                                       : 2
Format                                   : AC-3
Format/Info                              : Audio Coding 3
Commercial name                          : Dolby Digital
Codec ID                                 : A_AC3
Duration                                 : 1 h 29 min
Bit rate mode                            : Constant
Bit rate                                 : 640 kb/s
Channel(s)                               : 6 channels
Channel layout                           : L R C LFE Ls Rs
Sampling rate                            : 48.0 kHz
Frame rate                               : 31.250 FPS (1536 SPF)
Compression mode                         : Lossy
Stream size                              : 409 MiB (7%)
Language                                 : English
Service kind                             : Complete Main
Default                                  : Yes
Forced                                   : No

Audio #2
ID                                       : 3
Format                                   : AAC LC
Format/Info                              : Advanced Audio Codec Low Complexity
Codec ID                                 : A_AAC-2
Duration                                 : 1 h 29 min
Bit rate                                 : 110 kb/s
Channel(s)                               : 2 channels
Channel layout                           : L R
Sampling rate                            : 48.0 kHz
Frame rate                               : 46.875 FPS (1024 SPF)
Compression mode                         : Lossy
Delay relative to video                  : 20 ms
Stream size                              : 70.5 MiB (1%)
Title                                    : Commentary
Language                                 : English
Default                                  : No
Forced                                   : No

Text #1
ID                                       : 4
Format                                   : UTF-8
Codec ID                                 : S_TEXT/UTF8
Codec ID/Info                            : UTF-8 Plain Text
Duration                                 : 1 h 13 min
Bit rate                                 : 9 b/s
Count of elements                        : 180
Stream size                              : 4.91 KiB (0%)
Title                                    : English (Forced)
Language                                 : English
Default                                  : Yes
Forced                                   : Yes

Text #2
ID                                       : 5
Format                                   : PGS
Muxing mode                              : zlib
Codec ID                                 : S_HDMV/PGS
Codec ID/Info                            : Picture based subtitle format used on BDs/HD-DVDs
Duration                                 : 1 h 22 min
Bit rate                                 : 36.9 kb/s
Count of elements                        : 2432
Stream size                              : 21.9 MiB (0%)
Title                                    : SDH
Language                                 : English
Default                                  : No
Forced                                   : No

Text #3
ID                                       : 6
Format                                   : PGS
Muxing mode                              : zlib
Codec ID                                 : S_HDMV/PGS
Codec ID/Info                            : Picture based subtitle format used on BDs/HD-DVDs
Duration                                 : 1 h 13 min
Bit rate                                 : 5 106 b/s
Count of elements                        : 360
Stream size                              : 2.67 MiB (0%)
Language                                 : English
Default                                  : No
Forced                                   : No

Menu
00:00:00.000                             : en:Chapter 01
00:07:10.138                             : en:Chapter 02
00:14:25.114                             : en:Chapter 03
00:21:14.398                             : en:Chapter 04
00:28:29.917                             : en:Chapter 05
00:35:49.773                             : en:Chapter 06
00:43:36.030                             : en:Chapter 07
00:52:00.242                             : en:Chapter 08
01:00:02.307                             : en:Chapter 09
01:07:05.355                             : en:Chapter 10
01:13:53.679                             : en:Chapter 11
01:21:04.318                             : en:Chapter 12
[/url]



                                                                                                                                                                                                        
                                                                                                                                                                                                                                                                                                                                                                                                                                                                                                                                                                                                                                                                                                                                                                                                                                                        
edf2262daf7e167e6fff14a35357fd7d.zip (28.83 KB, 下载次数: 12)

回复

使用道具 举报

小黑屋|磁力链接吧 |网站地图

本网站所有资源来自网络,如无意中侵犯了您的权益,请发邮件至 [email protected],立即清除相关链接

GMT+8, 2021-4-19 19:48 , Processed in 0.106493 second(s), 22 queries .

Powered by Discuz! X3.2

© 2001-2013 Comsenz Inc.

快速回复 返回顶部 返回列表