磁力链接吧

 找回密码
 立即注册
搜索

公理/受虐男孩 Foster.Boy.2019.1080p.BluRay.x264.DTS-FGT 9.57GB

[复制链接]
百度云资源 发表于 2021-2-27 08:44:19 | 显示全部楼层 |阅读模式
-->
帖子完整标题:公理/受虐男孩 Foster.Boy.2019.1080p.BluRay.x264.DTS-FGT 9.57GB


[/url]

◎译  名 公理/受虐男孩
◎片  名 Foster Boy
◎年  代 2019
◎产  地 美国
◎类  别 
◎语  言 英语
◎上映日期 2019-10-03(纳什维尔电影节) / 2020-09-25(美国)
◎IMDb评分  5.7/10 from 209 users
◎  
◎豆瓣评分 6.8/10 from 87 users
◎ 
◎片  长 106分钟
◎导  演 Youssef Delara
◎主  演 沙恩·保罗·麦吉 Shane Paul McGhie
       马修·莫迪恩 Matthew Modine

◎标  签 法律 | 剧情 | 美国 | 2019 | 种族 | 正义 | 马修·莫迪恩 | 美国电影

◎简  介

  律师麦克被卷入到一个领养机构和黑人青年的案件中来。逐渐了解到真相的他,从一开始不情不愿帮黑人辩护到主动出击,替黑人受害者讨回公道。
Video
ID                                       : 1
Format                                   : AVC
Format/Info                              : Advanced Video Codec
Format profile                           :
Format settings                          : CABAC / 4 Ref Frames
Format settings, CABAC                   : Yes
Format settings, Reference frames        : 4 frames
Codec ID                                 : V_MPEG4/ISO/AVC
Duration                                 : 1 h 45 min
Bit rate                                 : 11.5 Mb/s
Width                                    : 1 920 pixels
Height                                   : 796 pixels
Display aspect ratio                     : 2.40:1
Frame rate mode                          : Constant
Frame rate                               : 23.976 (24000/1001/189150) FPS
Color space                              : YUV
Chroma subsampling                       : 4:2:0
Bit depth                                : 8 bits
Scan type                                : Progressive
Bits/(Pixel*Frame)                       : 0.314
Stream size                              : 8.46 GiB (88%)
Writing library                          : x264 core 148 r2748 97eaef2
Encoding settings                        : cabac=1 / ref=4 / deblock=1:-2:-2 / analyse=0x3:0x113 / me=umh / subme=9 / psy=1 / psy_rd=1.00:0.15 / mixed_ref=1 / me_range=16 / chroma_me=1 / trellis=2 / 8x8dct=1 / cqm=0 / deadzone=21,11 / fast_pskip=1 / chroma_qp_offset=-3 / threads=72 / lookahead_threads=3 / sliced_threads=0 / nr=0 / decimate=1 / interlaced=0 / bluray_compat=0 / constrained_intra=0 / bframes=3 / b_pyramid=2 / b_adapt=1 / b_bias=0 / direct=3 / weightb=1 / open_gop=0 / weightp=2 / keyint=250 / keyint_min=25 / scenecut=40 / intra_refresh=0 / rc_lookahead=50 / rc=2pass / mbtree=1 / bitrate=11500 / ratetol=1.0 / qcomp=0.60 / qpmin=0 / qpmax=69 / qpstep=4 / cplxblur=20.0 / qblur=0.5 / vbv_maxrate=31250 / vbv_bufsize=31250 / nal_hrd=none / filler=0 / ip_ratio=1.40 / aq=1:1.00
Language                                 : English
Default                                  : Yes
Forced                                   : No

Audio
ID                                       : 2
Format                                   : DTS
Format/Info                              : Digital Theater Systems
Codec ID                                 : A_DTS
Duration                                 : 1 h 45 min
Bit rate mode                            : Constant
Bit rate                                 : 1 509 kb/s
Channel(s)                               : 6 channels
Channel layout                           : C L R Ls Rs LFE
Sampling rate                            : 48.0 kHz
Frame rate                               : 93.750 FPS (512 SPF)
Bit depth                                : 24 bits
Compression mode                         : Lossy
Stream size                              : 1.11 GiB (12%)
Title                                    : DTS 5.1
Language                                 : English
Default                                  : Yes
Forced                                   : No

Text
ID                                       : 3
Format                                   : UTF-8
Codec ID                                 : S_TEXT/UTF8
Codec ID/Info                            : UTF-8 Plain Text
Duration                                 : 1 h 42 min
Bit rate                                 : 68 b/s
Count of elements                        : 1427
Stream size                              : 51.0 KiB (0%)
Language                                 : English
Default                                  : Yes
Forced                                   : No

Menu
00:00:00.000                             : en:Chapter 01
00:10:30.213                             : en:Chapter 02
00:19:59.698                             : en:Chapter 03
00:33:25.879                             : en:Chapter 04
00:41:53.594                             : en:Chapter 05
00:50:35.491                             : en:Chapter 06
01:02:38.129                             : en:Chapter 07
01:13:35.828                             : en:Chapter 08
01:19:35.813                             : en:Chapter 09
01:29:13.890                             : en:Chapter 10
01:35:19.422                             : en:Chapter 11
01:39:08.401                             : en:Chapter 12
[/url][/url]



                                                                                                                                                                                                        
                                                                                                                                                                                                                                                                                                                                                                                                                                                                                                                                                                                                                                                                                                                                                                                                                                                        
fecb195ade7d3ba836ec5383b63bea6f.zip (48.47 KB, 下载次数: 7)

回复

使用道具 举报

小黑屋|磁力链接吧 |网站地图

本网站所有资源来自网络,如无意中侵犯了您的权益,请发邮件至 [email protected],立即清除相关链接

GMT+8, 2021-4-16 11:21 , Processed in 0.208906 second(s), 22 queries .

Powered by Discuz! X3.2

© 2001-2013 Comsenz Inc.

快速回复 返回顶部 返回列表