磁力链接吧

 找回密码
 立即注册
搜索

親愛的房客 Dear.Tenant.2020.CHINESE.1080p.BluRay.x264.DD5.1-HANDJOB 7.41GB

[复制链接]
百度云资源 发表于 2021-2-27 08:44:19 | 显示全部楼层 |阅读模式
-->
帖子完整标题:親愛的房客 Dear.Tenant.2020.CHINESE.1080p.BluRay.x264.DD5.1-HANDJOB 7.41GB


[/url]

◎译  名 亲爱的房客/Dear Tenant
◎片  名 親愛的房客
◎年  代 2020
◎产  地 中国台湾
◎类  别 剧情 / 同性
◎语  言 汉语普通话
◎上映日期 2020-07-04(台北电影节) / 2020-10-23(中国台湾) / 2021-02-18(中国台湾网络)
◎IMDb评分  7.6/10 from 386 users
◎  
◎豆瓣评分 7.6/10 from 4251 users
◎ 
◎片  长 106分钟
◎导  演 郑有杰 Yu-Chieh Cheng
◎编  剧 郑有杰 Yu-Chieh Cheng
◎主  演 莫子仪 Tzu-yi Mo
       陈淑芳 Shu-Fang Chen
       白润音 Run-yin Bai
       吴朋奉 Pong Fong Wu
       谢琼煖 Chiung-Hsuan Hsieh
       姚淳耀 Jack Yao
       是元介 Jay Shin
       沈威年 Nelson
       王可元 Tommi Wang
       陈雪甄 Vera Chen
       胡广雯 Iris
       朱宥丞 Edward Chu

◎标  签 台湾 | 同性 | LGBT | 台湾电影 | 2020 | 剧情 | 莫子仪 | 电影

◎简  介

  林健一(莫子仪 饰)是住在顶楼的房客,但他不只照顾年迈患病的房东周秀玉(陈淑芳 饰),还收养了她9岁的孙子王悠宇(白润音 饰),这一切看似超出普通房客的行为动机,在周秀玉去世后受到质疑,很多人怀疑他是为了顺理成章的获得遗产,他百口莫辩,因为这些举动背后隐藏着一段不被承认的感情,也更是他思念一个人的方式,而那个人正是房东已经过世的儿子…

◎获奖情况

  第22届台北电影节 ?(2020)
  台北电影奖最佳男主角奖 莫子仪
  台北电影奖最佳女配角奖(提名) 陈淑芳
  台北电影奖最佳美术设计(提名)
Video
ID                                       : 1
Format                                   : AVC
Format/Info                              : Advanced Video Codec
Format profile                           :
Format settings                          : CABAC / 5 Ref Frames
Format settings, CABAC                   : Yes
Format settings, Reference frames        : 5 frames
Codec ID                                 : V_MPEG4/ISO/AVC
Duration                                 : 1 h 46 min
Bit rate                                 : 9 318 kb/s
Width                                    : 1 920 pixels
Height                                   : 804 pixels
Display aspect ratio                     : 2.40:1
Frame rate mode                          : Constant
Frame rate                               : 24.000 FPS
Color space                              : YUV
Chroma subsampling                       : 4:2:0
Bit depth                                : 8 bits
Scan type                                : Progressive
Bits/(Pixel*Frame)                       : 0.252
Stream size                              : 6.93 GiB (93%)
Writing library                          : x264 core 157 r2935 545de2f
Encoding settings                        : cabac=1 / ref=5 / deblock=1:-3:-3 / analyse=0x3:0x133 / me=umh / subme=10 / psy=1 / psy_rd=1.00:0.00 / mixed_ref=1 / me_range=32 / chroma_me=1 / trellis=2 / 8x8dct=1 / cqm=0 / deadzone=21,11 / fast_pskip=0 / chroma_qp_offset=-2 / threads=18 / lookahead_threads=4 / sliced_threads=0 / nr=0 / decimate=0 / interlaced=0 / bluray_compat=0 / constrained_intra=0 / bframes=16 / b_pyramid=2 / b_adapt=2 / b_bias=0 / direct=3 / weightb=1 / open_gop=0 / weightp=2 / keyint=240 / keyint_min=24 / scenecut=40 / intra_refresh=0 / rc_lookahead=60 / rc=crf / mbtree=0 / crf=16.0 / qcomp=0.60 / qpmin=0 / qpmax=69 / qpstep=4 / vbv_maxrate=62500 / vbv_bufsize=78125 / crf_max=0.0 / nal_hrd=none / filler=0 / ip_ratio=1.40 / pb_ratio=1.30 / aq=2:1.00
Default                                  : Yes
Forced                                   : No
Color range                              : Limited
Color primaries                          : BT.709
Transfer characteristics                 : BT.709
Matrix coefficients                      : BT.709

Audio
ID                                       : 2
Format                                   : AC-3
Format/Info                              : Audio Coding 3
Commercial name                          : Dolby Digital
Codec ID                                 : A_AC3
Duration                                 : 1 h 46 min
Bit rate mode                            : Constant
Bit rate                                 : 640 kb/s
Channel(s)                               : 6 channels
Channel layout                           : L R C LFE Ls Rs
Sampling rate                            : 48.0 kHz
Frame rate                               : 31.250 FPS (1536 SPF)
Compression mode                         : Lossy
Stream size                              : 487 MiB (6%)
Language                                 : Chinese
Service kind                             : Complete Main
Default                                  : Yes
Forced                                   : No

Text #1
ID                                       : 3
Format                                   : UTF-8
Codec ID                                 : S_TEXT/UTF8
Codec ID/Info                            : UTF-8 Plain Text
Duration                                 : 1 h 41 min
Bit rate                                 : 26 b/s
Count of elements                        : 928
Stream size                              : 19.6 KiB (0%)
Language                                 : English
Default                                  : Yes
Forced                                   : No

Text #2
ID                                       : 4
Format                                   : PGS
Muxing mode                              : zlib
Codec ID                                 : S_HDMV/PGS
Codec ID/Info                            : Picture based subtitle format used on BDs/HD-DVDs
Duration                                 : 1 h 41 min
Bit rate                                 : 27.8 kb/s
Count of elements                        : 1553
Stream size                              : 20.2 MiB (0%)
Language                                 : English
Default                                  : No
Forced                                   : No

Menu
00:00:00.000                             : en:Chapter 01
00:08:52.042                             : en:Chapter 02
00:15:50.042                             : en:Chapter 03
00:25:39.542                             : en:Chapter 04
00:33:36.917                             : en:Chapter 05
00:41:02.792                             : en:Chapter 06
00:50:32.542                             : en:Chapter 07
00:59:49.125                             : en:Chapter 08
01:09:08.292                             : en:Chapter 09
01:22:02.625                             : en:Chapter 10
01:28:48.958                             : en:Chapter 11
01:37:28.583                             : en:Chapter 12
[/url][/url][/url]



                                                                                                                                                                                                        
                                                                                                                                                                                                                                                                                                                                                                                                                                                                                                                                                                                                                                                                                                                                                                                                                                                        
dc464e3ec1fef31b2f3f540e91a5f986.zip (37.76 KB, 下载次数: 2)

回复

使用道具 举报

小黑屋|磁力链接吧 |网站地图

本网站所有资源来自网络,如无意中侵犯了您的权益,请发邮件至 [email protected],立即清除相关链接

GMT+8, 2021-4-16 10:37 , Processed in 0.178624 second(s), 22 queries .

Powered by Discuz! X3.2

© 2001-2013 Comsenz Inc.

快速回复 返回顶部 返回列表