磁力链接吧

 找回密码
 立即注册
搜索

[BD-4K] 我很在乎/完美监护 I.Care.a.Lot.2020.2160p.AMZN.WEB-DL.x265.10bit.HDR1...

[复制链接]
百度云资源 发表于 2021-2-26 21:48:18 | 显示全部楼层 |阅读模式
-->
帖子完整标题:我很在乎/完美监护 I.Care.a.Lot.2020.2160p.AMZN.WEB-DL.x265.10bit.HDR10plus.DDP5.1-NOGRP 12.84GB


[/url]

◎译  名 我很在乎/完美监护(台)/完美监护人(港)/诈欺女王(台)
◎片  名 I Care a Lot
◎年  代 2020
◎产  地 英国
◎类  别 喜剧 / 惊悚 / 犯罪
◎语  言 英语
◎上映日期 2020-09-12(多伦多电影节) / 2021-02-19(美国网络)
◎IMDb评分  6.2/10 from 29278 users
◎  
◎豆瓣评分 6.3/10 from 3358 users
◎ 
◎片  长 118分钟
◎导  演 J·布莱克森 J Blakeson
◎编  剧 J·布莱克森 J Blakeson
◎主  演 裴淳华 Rosamund Pike
       彼特·丁拉基 Peter Dinklage
       艾莎·冈萨雷斯 Eiza González
       黛安·韦斯特 Dianne Wiest
       克里斯·梅西纳 Chris Messina
       小伊塞亚·维特洛克 Isiah Whitlock Jr.
       梅肯·布莱尔 Macon Blair
       艾丽西亚·维特 Alicia Witt
       达米安·杨 Damian Young
       尼古拉斯·罗根 Nicholas Logan
       利兹·恩格 Liz Eng
       乔治亚·莱曼 Georgia Lyman
       克里斯·埃弗里特 Chris Everett
       何塞·冈斯·阿尔维斯 Jose Guns Alves
       凯文·芬内西 Kevin Fennessy
       珍妮尔·费格利 Janelle Feigley
       杰米·加扎里安 Jamie Ghazarian
       阿德里安·M·蒙波因特 Adrian M. Mompoint
       斯科特·麦克纳里 Scoot McNairy

◎标  签 犯罪 | 剧情 | 美国 | 2021 | 英国 | Netflix | 悬疑 | 喜剧

◎简  介

  玛拉·葛蕾森(荣获奥斯卡金像奖提名的裴淳华饰)有着鲨鱼般的自信,是法院为数十名老人指定的监护人,她通过可疑但合法的手段攫取了这些人的财产,并狡猾地将这些财产据为己有。玛拉和她的商业伙伴兼爱人弗兰(艾莎·冈萨雷斯饰)最近盯上的“肥羊”名叫詹妮弗·彼得森(两届奥斯卡金像奖得主黛安·韦斯特饰),她是一名富有的退休人员,没有继承人,也没有陪伴左右的家人。然而,就在她们故技重施并进展顺利时,她们发现自己的目标也隐藏着不可告人的秘密,并且与性格暴躁的黑帮成员(金球奖得主彼特·丁拉基饰)联系甚密,因此玛拉被迫加入一场弱肉强食的游戏中,并且游戏中毫无公平可言。

◎获奖情况

  第78届金球奖 ?(2021)
  电影类音乐/喜剧片最佳女主角(提名) 裴淳华
Video
ID                                       : 1
Format                                   : HEVC
Format/Info                              : High Efficiency Video Coding
Format profile                           : Main @Main
HDR format                               : SMPTE ST 2094 App 4, Version 1, HDR10+ Profile B compatible
Codec ID                                 : V_MPEGH/ISO/HEVC
Duration                                 : 1 h 58 min
Bit rate                                 : 14.9 Mb/s
Width                                    : 3 840 pixels
Height                                   : 1 600 pixels
Display aspect ratio                     : 2.40:1
Frame rate mode                          : Constant
Frame rate                               : 23.976 (24000/1001/189150) FPS
Color space                              : YUV
Chroma subsampling                       : 4:2:0
Bit depth                                : 10 bits
Bits/(Pixel*Frame)                       : 0.101
Stream size                              : 12.3 GiB (96%)
Language                                 : English
Default                                  : Yes
Forced                                   : No
Color range                              : Limited
Color primaries                          : BT.2020
Transfer characteristics                 : PQ
Matrix coefficients                      : BT.2020 non-constant
Mastering display color primaries        : Display P3
Mastering display luminance              : min: 0.0001 cd/m2, max: 1000 cd/m2
Maximum Content Light Level              : 510 cd/m2
Maximum Frame-Average Light Level        : 279 cd/m2

Audio
ID                                       : 2
Format                                   : E-AC-3
Format/Info                              : Enhanced AC-3
Commercial name                          : Dolby Digital Plus
Codec ID                                 : A_EAC3
Duration                                 : 1 h 58 min
Bit rate mode                            : Constant
Bit rate                                 : 640 kb/s
Channel(s)                               : 6 channels
Channel layout                           : L R C LFE Ls Rs
Sampling rate                            : 48.0 kHz
Frame rate                               : 31.250 FPS (1536 SPF)
Compression mode                         : Lossy
Stream size                              : 543 MiB (4%)
Language                                 : English
Service kind                             : Complete Main
Default                                  : Yes
Forced                                   : No

Text #1
ID                                       : 3
Format                                   : UTF-8
Codec ID                                 : S_TEXT/UTF8
Codec ID/Info                            : UTF-8 Plain Text
Duration                                 : 1 h 51 min
Bit rate                                 : 53 b/s
Count of elements                        : 1230
Stream size                              : 43.6 KiB (0%)
Language                                 : English
Default                                  : No
Forced                                   : No

Text #2
ID                                       : 4
Format                                   : UTF-8
Codec ID                                 : S_TEXT/UTF8
Codec ID/Info                            : UTF-8 Plain Text
Duration                                 : 1 h 52 min
Bit rate                                 : 56 b/s
Count of elements                        : 1339
Stream size                              : 46.2 KiB (0%)
Title                                    : SDH
Language                                 : English
Default                                  : No
Forced                                   : No

Text #3
ID                                       : 5
Format                                   : UTF-8
Codec ID                                 : S_TEXT/UTF8
Codec ID/Info                            : UTF-8 Plain Text
Duration                                 : 1 h 57 min
Bit rate                                 : 58 b/s
Count of elements                        : 1648
Stream size                              : 50.5 KiB (0%)
Language                                 : French
Default                                  : No
Forced                                   : No

Text #4
ID                                       : 6
Format                                   : UTF-8
Codec ID                                 : S_TEXT/UTF8
Codec ID/Info                            : UTF-8 Plain Text
Duration                                 : 1 h 57 min
Bit rate                                 : 44 b/s
Count of elements                        : 1383
Stream size                              : 38.6 KiB (0%)
Language                                 : Italian
Default                                  : No
Forced                                   : No

Menu
00:00:00.000                             : en:Amazon Original
00:00:06.000                             : en:Studio Logos
00:00:43.000                             : en:Opening Credits
00:01:09.000                             : en:Not good people
00:03:05.000                             : en:A day in court
00:06:29.000                             : en:Threats
00:07:41.000                             : en:A day at the office
00:10:10.000                             : en:A cherry
00:12:57.000                             : en:Researching a new client
00:15:30.000                             : enicking up Mrs. Peterson
00:22:53.000                             : en:Going through the assets
00:26:33.000                             : en:Unexpected visitor
00:27:59.000                             : en:Reporting back to the boss
00:31:56.000                             : en:The diamonds
00:33:17.000                             : en:Roman finds his mother
00:36:01.000                             : en:A meeting with Marla
00:44:47.000                             : en:The worst mistake she'll ever make
00:49:01.000                             : en:A trip to the bank
00:50:08.000                             : en:A scandal for the judge
00:53:38.000                             : en:Roman throws a fit
00:54:09.000                             : en:A tour of the facility
00:54:54.000                             : en:The truth about Mrs. Peterson
01:00:20.000                             : enolice interview
01:01:54.000                             : en:Calling in a favor
01:03:23.000                             : enanic at home
01:05:27.000                             : en:Marla refuses to lose
01:08:14.000                             : en:Moving to a psych facility
01:10:07.000                             : en:Fencing the diamonds
01:12:25.000                             : en:A break in
01:12:55.000                             : en:You can't spend money when you're dead
01:23:04.000                             : en:Trying to survive
01:32:38.000                             : en:Making a plan
01:41:38.000                             : en:A new opportunity
01:48:30.000                             : en:A very rich woman
01:52:54.000                             : en:End Credits




                                                                                                                                                                                                        
                                                                                                                                                                                                                                                                                                                                                                                                                                                                                                                                                                                                                                                                                                                                                                                                                                                        
1be7f530682ae7bdff94fd3b89800b04.zip (64.95 KB, 下载次数: 12)

回复

使用道具 举报

小黑屋|磁力链接吧 |网站地图

本网站所有资源来自网络,如无意中侵犯了您的权益,请发邮件至 [email protected],立即清除相关链接

GMT+8, 2021-4-20 09:25 , Processed in 0.091035 second(s), 22 queries .

Powered by Discuz! X3.2

© 2001-2013 Comsenz Inc.

快速回复 返回顶部 返回列表