磁力链接吧

 找回密码
 立即注册
搜索

[BD-4K] 群尸屠城 Demons.1985.2160p.BluRay.x265.10bit.SDR.DTS-HD.MA.5.1-SWTYBLZ 53...

[复制链接]
百度云资源 发表于 2021-2-26 21:48:18 | 显示全部楼层 |阅读模式
-->
帖子完整标题:群尸屠城 Demons.1985.2160p.BluRay.x265.10bit.SDR.DTS-HD.MA.5.1-SWTYBLZ 53.34GB


[/url]

◎译  名 群尸屠城/Demons/月夜惊心/猛鬼戏院
◎片  名 Dèmoni
◎年  代 1985
◎产  地 意大利
◎类  别 动作 / 恐怖
◎语  言 英语,意大利语
◎上映日期 1985-10-04
◎IMDb评分  6.7/10 from 20101 users
◎  
◎豆瓣评分 6.8/10 from 1221 users
◎ 
◎片  长 88分钟
◎导  演 兰帕德·帕瓦 Lamberto Bava
◎编  剧 达里奥·阿基多 Dario Argento / 兰帕德·帕瓦 Lamberto Bava / 弗兰科·费里尼 Franco Ferrini / 达尔达诺·萨凯蒂 Dardano Sacchetti
◎主  演 塞尔吉奥·斯蒂韦尔蒂 Sergio Stivaletti
       兰帕德·帕瓦 Lamberto Bava
       Bobby Rhodes
       Peter Pitsch
       Goffredo Unger
       娜塔莎·霍维 Natasha Hovey
       Giovanni Frezza
       卡尔·泽尼 Karl Zinny
       妮可莱塔·埃尔米 Nicoletta Elmi
       乌尔巴诺·巴尔贝里尼 Urbano Barberini
       米歇尔·索伊 Michele Soavi
       伊丽亚娜·米格里欧 Eliana Miglio
       Enrica Maria Scrivano

◎标  签 恐怖 | 意大利 | 丧尸 | 僵尸 | 惊悚 | Cult | 1985 | 血腥

◎简  介

  西柏林,一家新落成的电影院正在派发电影票,招揽观众。影院首映的是一部名为《魔鬼》的恐怖影片。年轻女孩绮丽儿(Natasha Hovey 纳塔莎?霍维 饰)对影片颇感兴趣,她邀请好友凯茜(Paola Cozzo 饰)一同逃课前往电影院。
  
  途中她们遇到另一伙年轻人,其中一个女人将影片宣传用的面具戴在脸上,却不慎割伤了皮肤。这个不慎的闪失导致了无可挽回的大灾难,该女子变成全身发绿的恐怖恶魔,凡是被她抓伤或咬到的也会产生同样的变化。人们四散逃命,恐怖迅速蔓延。绮丽儿她们该如何逃出生天呢?
Video
ID                                       : 1
Format                                   : HEVC
Format/Info                              : High Efficiency Video Coding
Format profile                           : Main @High
Codec ID                                 : V_MPEGH/ISO/HEVC
Duration                                 : 1 h 28 min
Bit rate                                 : 75.4 Mb/s
Width                                    : 3 600 pixels
Height                                   : 2 160 pixels
Display aspect ratio                     : 5:3
Frame rate mode                          : Constant
Frame rate                               : 24.000 FPS
Color space                              : YUV
Chroma subsampling                       : 4:2:0
Bit depth                                : 10 bits
Bits/(Pixel*Frame)                       : 0.404
Stream size                              : 46.5 GiB (88%)
Writing library                          : x265 3.0ed72af837053:[Windows][GCC 8.2.0][64 bit] 10bit
Encoding settings                        : cpuid=1111039 / frame-threads=6 / numa-pools=40 / wpp / no-pmode / no-pme / no-psnr / no-ssim / log-level=2 / input-csp=1 / input-res=3600x2160 / interlace=0 / total-frames=127253 / level-idc=51 / high-tier=1 / uhd-bd=0 / ref=3 / no-allow-non-conformance / repeat-headers / annexb / aud / hrd / info / hash=0 / no-temporal-layers / no-open-gop / min-keyint=1 / keyint=24 / gop-lookahead=0 / bframes=4 / b-adapt=2 / b-pyramid / bframe-bias=0 / rc-lookahead=25 / lookahead-slices=4 / scenecut=40 / radl=0 / no-splice / no-intra-refresh / ctu=64 / min-cu-size=8 / no-rect / no-amp / max-tu-size=32 / tu-inter-depth=1 / tu-intra-depth=1 / limit-tu=0 / rdoq-level=0 / dynamic-rd=0.00 / no-ssim-rd / signhide / no-tskip / nr-intra=0 / nr-inter=0 / no-constrained-intra / strong-intra-smoothing / max-merge=2 / limit-refs=3 / no-limit-modes / me=1 / subme=2 / merange=57 / temporal-mvp / weightp / no-weightb / no-analyze-src-pics / deblock=0:0 / no-sao / no-sao-non-deblock / rd=3 / no-early-skip / rskip / no-fast-intra / no-tskip-fast / no-cu-lossless / no-b-intra / no-splitrd-skip / rdpenalty=0 / psy-rd=2.00 / psy-rdoq=0.00 / no-rd-refine / no-lossless / cbqpoffs=0 / crqpoffs=0 / rc=crf / crf=16.0 / qcomp=0.60 / qpstep=4 / stats-write=0 / stats-read=0 / vbv-maxrate=160000 / vbv-bufsize=160000 / vbv-init=0.9 / crf-max=0.0 / crf-min=0.0 / ipratio=1.40 / pbratio=1.30 / aq-mode=1 / aq-strength=1.00 / cutree / zone-count=0 / no-strict-cbr / qg-size=32 / no-rc-grain / qpmax=69 / qpmin=0 / no-const-vbv / sar=1 / overscan=0 / videoformat=5 / range=0 / colorprim=2 / transfer=2 / colormatrix=2 / chromaloc=0 / display-window=0 / max-cll=0,0 / min-luma=0 / max-luma=1023 / log2-max-poc-lsb=8 / vui-timing-info / vui-hrd-info / slices=1 / opt-qp-pps / opt-ref-list-length-pps / no-multi-pass-opt-rps / scenecut-bias=0.05 / no-opt-cu-delta-qp / no-aq-motion / no-hdr / no-hdr-opt / no-dhdr10-opt / no-idr-recovery-sei / analysis-reuse-level=5 / scale-factor=0 / refine-intra=0 / refine-inter=0 / refine-mv=0 / refine-ctu-distortion=0 / no-limit-sao / ctu-info=0 / no-lowpass-dct / refine-analysis-type=0 / copy-pic=1 / max-ausize-factor=1.0 / no-dynamic-refine / no-single-sei / no-hevc-aq / qp-adaptation-range=1.00
Default                                  : Yes
Forced                                   : No

Audio #1
ID                                       : 2
ID in the original source medium         : 4352 (0x1100)
Format                                   : DTS XLL
Format/Info                              : Digital Theater Systems
Commercial name                          : DTS-HD Master Audio
Codec ID                                 : A_DTS
Duration                                 : 1 h 28 min
Bit rate mode                            : Variable
Bit rate                                 : 3 012 kb/s
Channel(s)                               : 6 channels
Channel layout                           : C L R Ls Rs LFE
Sampling rate                            : 48.0 kHz
Frame rate                               : 93.750 FPS (512 SPF)
Bit depth                                : 24 bits
Compression mode                         : Lossless
Stream size                              : 1.86 GiB (4%)
Title                                    : DTS-HD MA 5.1
Language                                 : English
Default                                  : Yes
Forced                                   : No
Original source medium                   : Blu-ray

Audio #2
ID                                       : 3
Format                                   : AC-3
Format/Info                              : Audio Coding 3
Commercial name                          : Dolby Digital
Codec ID                                 : A_AC3
Duration                                 : 1 h 28 min
Bit rate mode                            : Constant
Bit rate                                 : 640 kb/s
Channel(s)                               : 6 channels
Channel layout                           : L R C LFE Ls Rs
Sampling rate                            : 48.0 kHz
Frame rate                               : 31.250 FPS (1536 SPF)
Compression mode                         : Lossy
Stream size                              : 405 MiB (1%)
Title                                    : DD 5.1
Language                                 : English
Service kind                             : Complete Main
Default                                  : No
Forced                                   : No

Audio #3
ID                                       : 4
ID in the original source medium         : 4353 (0x1101)
Format                                   : DTS XLL
Format/Info                              : Digital Theater Systems
Commercial name                          : DTS-HD Master Audio
Codec ID                                 : A_DTS
Duration                                 : 1 h 28 min
Bit rate mode                            : Variable
Bit rate                                 : 1 647 kb/s
Channel(s)                               : 2 channels
Channel layout                           : L R
Sampling rate                            : 48.0 kHz
Frame rate                               : 93.750 FPS (512 SPF)
Bit depth                                : 24 bits
Compression mode                         : Lossless
Stream size                              : 1.02 GiB (2%)
Title                                    : DTS-HD MA 2.0
Language                                 : English
Default                                  : No
Forced                                   : No
Original source medium                   : Blu-ray

Audio #4
ID                                       : 5
ID in the original source medium         : 4354 (0x1102)
Format                                   : DTS XLL
Format/Info                              : Digital Theater Systems
Commercial name                          : DTS-HD Master Audio
Codec ID                                 : A_DTS
Duration                                 : 1 h 28 min
Bit rate mode                            : Variable
Bit rate                                 : 3 010 kb/s
Channel(s)                               : 6 channels
Channel layout                           : C L R Ls Rs LFE
Sampling rate                            : 48.0 kHz
Frame rate                               : 93.750 FPS (512 SPF)
Bit depth                                : 24 bits
Compression mode                         : Lossless
Stream size                              : 1.86 GiB (4%)
Title                                    : DTS-HD MA 5.1
Language                                 : Italian
Default                                  : No
Forced                                   : No
Original source medium                   : Blu-ray

Audio #5
ID                                       : 6
Format                                   : AC-3
Format/Info                              : Audio Coding 3
Commercial name                          : Dolby Digital
Codec ID                                 : A_AC3
Duration                                 : 1 h 28 min
Bit rate mode                            : Constant
Bit rate                                 : 640 kb/s
Channel(s)                               : 6 channels
Channel layout                           : L R C LFE Ls Rs
Sampling rate                            : 48.0 kHz
Frame rate                               : 31.250 FPS (1536 SPF)
Compression mode                         : Lossy
Stream size                              : 405 MiB (1%)
Title                                    : DD 5.1
Language                                 : Italian
Service kind                             : Complete Main
Default                                  : No
Forced                                   : No

Audio #6
ID                                       : 7
ID in the original source medium         : 4355 (0x1103)
Format                                   : DTS XLL
Format/Info                              : Digital Theater Systems
Commercial name                          : DTS-HD Master Audio
Codec ID                                 : A_DTS
Duration                                 : 1 h 28 min
Bit rate mode                            : Variable
Bit rate                                 : 1 616 kb/s
Channel(s)                               : 2 channels
Channel layout                           : L R
Sampling rate                            : 48.0 kHz
Frame rate                               : 93.750 FPS (512 SPF)
Bit depth                                : 24 bits
Compression mode                         : Lossless
Stream size                              : 1 021 MiB (2%)
Title                                    : DTS-HD MA 2.0
Language                                 : Italian
Default                                  : No
Forced                                   : No
Original source medium                   : Blu-ray

Text #1
ID                                       : 8
Format                                   : UTF-8
Codec ID                                 : S_TEXT/UTF8
Codec ID/Info                            : UTF-8 Plain Text
Duration                                 : 1 h 21 min
Bit rate                                 : 33 b/s
Count of elements                        : 627
Stream size                              : 20.1 KiB (0%)
Title                                    : English-SRT
Language                                 : English
Default                                  : Yes
Forced                                   : No

Text #2
ID                                       : 9
ID in the original source medium         : 4768 (0x12A0)
Format                                   : PGS
Muxing mode                              : zlib
Codec ID                                 : S_HDMV/PGS
Codec ID/Info                            : Picture based subtitle format used on BDs/HD-DVDs
Duration                                 : 1 h 28 min
Bit rate                                 : 23.2 kb/s
Count of elements                        : 1547
Stream size                              : 14.6 MiB (0%)
Title                                    : English-PGS
Language                                 : English
Default                                  : No
Forced                                   : No
Original source medium                   : Blu-ray

Menu
00:00:00.000                             : en:Chapter 01
00:06:41.000                             : en:Chapter 02
00:13:47.750                             : en:Chapter 03
00:21:04.000                             : en:Chapter 04
00:32:45.583                             : en:Chapter 05
00:43:26.250                             : en:Chapter 06
00:45:24.625                             : en:Chapter 07
00:52:00.041                             : en:Chapter 08
00:58:55.500                             : en:Chapter 09
01:05:17.375                             : en:Chapter 10
01:13:56.958                             : en:Chapter 11
01:20:49.875                             : en:Chapter 12
[/url][/url]



                                                                                                                                                                                                        
                                                                                                                                                                                                                                                                                                                                                                                                                                                                                                                                                                                                                                                                                                                                                                                                                                                        
4defe6cbd756c0f47450266ec5c42b40.zip (134.06 KB, 下载次数: 5)

回复

使用道具 举报

小黑屋|磁力链接吧 |网站地图

本网站所有资源来自网络,如无意中侵犯了您的权益,请发邮件至 [email protected],立即清除相关链接

GMT+8, 2021-4-19 20:53 , Processed in 0.142417 second(s), 22 queries .

Powered by Discuz! X3.2

© 2001-2013 Comsenz Inc.

快速回复 返回顶部 返回列表