磁力链接吧

 找回密码
 立即注册
搜索

阵容 The.Lineup.1958.720p.BluRay.x264-ORBS 4.92GB

[复制链接]
百度云资源 发表于 2021-2-26 20:57:40 | 显示全部楼层 |阅读模式
-->
帖子完整标题:阵容 The.Lineup.1958.720p.BluRay.x264-ORBS 4.92GB


[/url]

◎译  名 阵容
◎片  名 The Lineup
◎年  代 1958
◎产  地 美国
◎类  别 剧情 / 犯罪 / 黑色电影
◎语  言 英语
◎上映日期 1958-06-11
◎IMDb评分  7.3/10 from 2896 users
◎  
◎豆瓣评分 7.5/10 from 246 users
◎ 
◎片  长 86 分钟
◎导  演 唐·希格尔 Don Siegel
◎编  剧 斯特林·西利芬特 Stirling Silliphant
◎主  演 埃里·瓦拉赫 Eli Wallach
       罗伯特·基思 Robert Keith
       理查德·杰克尔 Richard Jaeckel
       玛丽·拉罗什 Mary LaRoche

◎标  签 美国 | 犯罪 | 黑色电影 | Don_Siegel | 1950s | 美国电影 | 1958 | 唐·希格尔

◎简  介

  In San Francisco, two police inspectors are on the case when a rogue taxi driver, with the help of a rogue porter, manages to st eal the suitcase of an antiques collector before running down a cop, whose dying gesture is to shoot the cabbie dead. The inspectors discover that a statuette in the suitcase contains heroin. Meanwhile, a psychopathic gangster, his malignant mentor and their dipsomaniac driver have the job of picking up the other heroin shipments, hidden in the luggage of unsuspecting travelers. All goes well until they attempt to retrieve the heroin stuffed in a Japanese doll. A little girl and her lovely young mother have the doll, but when the crooks take possession of it, they find that the heroin has mysteriously vanished.
Video
ID                                       : 1
Format                                   : AVC
Format/Info                              : Advanced Video Codec
Format profile                           :
Format settings                          : CABAC / 9 Ref Frames
Format settings, CABAC                   : Yes
Format settings, Reference frames        : 9 frames
Codec ID                                 : V_MPEG4/ISO/AVC
Duration                                 : 1 h 26 min
Bit rate                                 : 7 294 kb/s
Width                                    : 1 280 pixels
Height                                   : 694 pixels
Display aspect ratio                     : 1.85:1
Frame rate mode                          : Constant
Frame rate                               : 23.976 (24000/1001/189150) FPS
Color space                              : YUV
Chroma subsampling                       : 4:2:0
Bit depth                                : 8 bits
Scan type                                : Progressive
Bits/(Pixel*Frame)                       : 0.342
Stream size                              : 4.41 GiB (90%)
Writing library                          : x264 core 161 r3043 59c0609
Encoding settings                        : cabac=1 / ref=9 / deblock=1:-3:-3 / analyse=0x3:0x133 / me=umh / subme=10 / psy=1 / psy_rd=1.50:0.15 / mixed_ref=1 / me_range=24 / chroma_me=1 / trellis=2 / 8x8dct=1 / cqm=0 / deadzone=21,11 / fast_pskip=0 / chroma_qp_offset=-3 / threads=22 / lookahead_threads=3 / sliced_threads=0 / nr=0 / decimate=0 / interlaced=0 / bluray_compat=0 / constrained_intra=0 / bframes=8 / b_pyramid=2 / b_adapt=2 / b_bias=0 / direct=3 / weightb=1 / open_gop=0 / weightp=2 / keyint=250 / keyint_min=23 / scenecut=40 / intra_refresh=0 / rc_lookahead=60 / rc=crf / mbtree=1 / crf=20.5 / qcomp=0.60 / qpmin=0 / qpmax=69 / qpstep=4 / ip_ratio=1.40 / aq=3:0.50
Default                                  : Yes
Forced                                   : No
Color range                              : Limited
Matrix coefficients                      : BT.709

Audio #1
ID                                       : 2
Format                                   : FLAC
Format/Info                              : Free Lossless Audio Codec
Codec ID                                 : A_FLAC
Duration                                 : 1 h 26 min
Bit rate mode                            : Variable
Bit rate                                 : 635 kb/s
Channel(s)                               : 1 channel
Channel layout                           : C
Sampling rate                            : 48.0 kHz
Frame rate                               : 11.719 FPS (4096 SPF)
Bit depth                                : 24 bits
Compression mode                         : Lossless
Stream size                              : 393 MiB (8%)
Writing library                          : libFLAC 1.3.2 (UTC 2017-01-01)
Language                                 : English
Default                                  : Yes
Forced                                   : No

Audio #2
ID                                       : 3
Format                                   : AAC LC
Format/Info                              : Advanced Audio Codec Low Complexity
Codec ID                                 : A_AAC-2
Duration                                 : 1 h 26 min
Bit rate                                 : 96.0 kb/s
Channel(s)                               : 2 channels
Channel layout                           : L R
Sampling rate                            : 48.0 kHz
Frame rate                               : 46.875 FPS (1024 SPF)
Compression mode                         : Lossy
Delay relative to video                  : 20 ms
Stream size                              : 60.0 MiB (1%)
Title                                    : Commentary
Language                                 : English
Default                                  : No
Forced                                   : No

Audio #3
ID                                       : 4
Format                                   : AAC LC
Format/Info                              : Advanced Audio Codec Low Complexity
Codec ID                                 : A_AAC-2
Duration                                 : 1 h 26 min
Bit rate                                 : 96.0 kb/s
Channel(s)                               : 2 channels
Channel layout                           : L R
Sampling rate                            : 48.0 kHz
Frame rate                               : 46.875 FPS (1024 SPF)
Compression mode                         : Lossy
Delay relative to video                  : 20 ms
Stream size                              : 59.2 MiB (1%)
Title                                    : Commentary
Language                                 : English
Default                                  : No
Forced                                   : No

Text
ID                                       : 5
Format                                   : PGS
Muxing mode                              : zlib
Codec ID                                 : S_HDMV/PGS
Codec ID/Info                            : Picture based subtitle format used on BDs/HD-DVDs
Duration                                 : 1 h 26 min
Bit rate                                 : 46.2 kb/s
Count of elements                        : 2806
Stream size                              : 28.5 MiB (1%)
Title                                    : SDH
Language                                 : English
Default                                  : No
Forced                                   : No

Menu
00:00:00.000                             : en:Chapter 01
00:08:35.098                             : en:Chapter 02
00:18:43.831                             : en:Chapter 03
00:27:10.087                             : en:Chapter 04
00:36:52.919                             : en:Chapter 05
00:46:14.146                             : en:Chapter 06
00:51:53.152                             : en:Chapter 07
00:59:39.868                             : en:Chapter 08
01:09:35.046                             : en:Chapter 09
01:17:10.668                             : en:Chapter 10
[/url]



                                                                                                                                                                                                        
                                                                                                                                                                                                                                                                                                                                                                                                                                                                                                                                                                                                                                                                                                                                                                                                                                                        
71d29abf33712495cfca1d35253f8f05.zip (49.88 KB, 下载次数: 3)

回复

使用道具 举报

小黑屋|磁力链接吧 |网站地图

本网站所有资源来自网络,如无意中侵犯了您的权益,请发邮件至 [email protected],立即清除相关链接

GMT+8, 2021-4-20 09:37 , Processed in 0.100178 second(s), 22 queries .

Powered by Discuz! X3.2

© 2001-2013 Comsenz Inc.

快速回复 返回顶部 返回列表