磁力链接吧

 找回密码
 立即注册
搜索

致命弯道 Wrong.Turn.2021.720p.BluRay.x264-PiGNUS 5.58GB

[复制链接]
百度云资源 发表于 2021-2-26 20:57:40 | 显示全部楼层 |阅读模式
-->
帖子完整标题:致命弯道 Wrong.Turn.2021.720p.BluRay.x264-PiGNUS 5.58GB


[/url]

◎译  名 致命弯道/Wrong Turn: The Foundation/致命弯道7/致命弯道重启版
◎片  名 Wrong Turn
◎年  代 2021
◎产  地 德国
◎类  别 惊悚 / 恐怖
◎语  言 英语
◎上映日期 2021-01-26(美国)
◎IMDb评分  5.3/10 from 6909 users
◎  
◎豆瓣评分 5.8/10 from 4634 users
◎ 
◎片  长 110分钟
◎导  演 迈克·P·纳尔逊 Mike P. Nelson
◎编  剧 阿兰·B·麦克埃尔罗伊 Alan B. McElroy
◎主  演 夏洛特·维嘉 Charlotte Vega
       艾玛·杜蒙特 Emma Dumont
       马修·莫迪恩 Matthew Modine
       黛茜·海德 Daisy Head
       比尔·萨奇 Bill Sage
       达米安·马菲 Damian Maffei
       迪伦·麦蒂 Dylan McTee
       科里·斯科特·艾伦 Cory Scott Allen
       阿德里安·法维拉 Adrian Favela
       大卫·哈奇森 David Hutchison
       阿丹·布拉德利 Adain Bradley

◎标  签 恐怖 | 惊悚 | 2021 | 美国 | 美国电影 | 翻拍 | *恐怖 | #系列

◎简  介

  一群亲密的好朋友决定前往西弗吉尼亚州徒步旅行,却意外遇到在对陌生人不友好的部落,这是一个已经在山里居住了数百年的部落。面对好朋友相继遇难,女主角利用自己的勇敢和智慧保护自己,最终虎口脱险的故事。
Video
ID                                       : 1
Format                                   : AVC
Format/Info                              : Advanced Video Codec
Format profile                           :
Format settings                          : CABAC / 8 Ref Frames
Format settings, CABAC                   : Yes
Format settings, Reference frames        : 8 frames
Codec ID                                 : V_MPEG4/ISO/AVC
Duration                                 : 1 h 50 min
Bit rate                                 : 6 465 kb/s
Width                                    : 1 280 pixels
Height                                   : 536 pixels
Display aspect ratio                     : 2.40:1
Frame rate mode                          : Constant
Frame rate                               : 23.976 (24000/1001/189150) FPS
Color space                              : YUV
Chroma subsampling                       : 4:2:0
Bit depth                                : 8 bits
Scan type                                : Progressive
Bits/(Pixel*Frame)                       : 0.393
Stream size                              : 4.98 GiB (89%)
Writing library                          : x264 core 161 r3048 b86ae3c
Encoding settings                        : cabac=1 / ref=8 / deblock=1:-3:-3 / analyse=0x3:0x133 / me=umh / subme=9 / psy=1 / psy_rd=1.00:0.00 / mixed_ref=1 / me_range=16 / chroma_me=1 / trellis=2 / 8x8dct=1 / cqm=0 / deadzone=21,11 / fast_pskip=1 / chroma_qp_offset=-2 / threads=17 / lookahead_threads=1 / sliced_threads=0 / nr=0 / decimate=1 / interlaced=0 / bluray_compat=0 / constrained_intra=0 / bframes=3 / b_pyramid=2 / b_adapt=2 / b_bias=0 / direct=3 / weightb=1 / open_gop=0 / weightp=2 / keyint=250 / keyint_min=23 / scenecut=40 / intra_refresh=0 / rc_lookahead=60 / rc=crf / mbtree=1 / crf=15.5 / qcomp=0.60 / qpmin=0 / qpmax=69 / qpstep=4 / ip_ratio=1.40 / aq=1:1.00
Default                                  : Yes
Forced                                   : No

Audio #1
ID                                       : 2
Format                                   : AC-3
Format/Info                              : Audio Coding 3
Commercial name                          : Dolby Digital
Codec ID                                 : A_AC3
Duration                                 : 1 h 50 min
Bit rate mode                            : Constant
Bit rate                                 : 640 kb/s
Channel(s)                               : 6 channels
Channel layout                           : L R C LFE Ls Rs
Sampling rate                            : 48.0 kHz
Frame rate                               : 31.250 FPS (1536 SPF)
Compression mode                         : Lossy
Stream size                              : 505 MiB (9%)
Language                                 : English
Service kind                             : Complete Main
Default                                  : Yes
Forced                                   : No

Audio #2
ID                                       : 3
Format                                   : AAC LC
Format/Info                              : Advanced Audio Codec Low Complexity
Codec ID                                 : A_AAC-2
Duration                                 : 1 h 50 min
Bit rate                                 : 105 kb/s
Channel(s)                               : 2 channels
Channel layout                           : L R
Sampling rate                            : 48.0 kHz
Frame rate                               : 46.875 FPS (1024 SPF)
Compression mode                         : Lossy
Delay relative to video                  : 9 ms
Stream size                              : 82.8 MiB (1%)
Title                                    : Commentary
Language                                 : English
Default                                  : No
Forced                                   : No

Text #1
ID                                       : 4
Format                                   : PGS
Muxing mode                              : zlib
Codec ID                                 : S_HDMV/PGS
Codec ID/Info                            : Picture based subtitle format used on BDs/HD-DVDs
Duration                                 : 1 h 47 min
Bit rate                                 : 32.6 kb/s
Count of elements                        : 3024
Stream size                              : 25.1 MiB (0%)
Title                                    : English SDH
Language                                 : English
Default                                  : No
Forced                                   : No

Text #2
ID                                       : 5
Format                                   : PGS
Muxing mode                              : zlib
Codec ID                                 : S_HDMV/PGS
Codec ID/Info                            : Picture based subtitle format used on BDs/HD-DVDs
Duration                                 : 1 h 42 min
Bit rate                                 : 27.0 kb/s
Count of elements                        : 2596
Stream size                              : 19.8 MiB (0%)
Title                                    : Spanish
Language                                 : Spanish
Default                                  : No
Forced                                   : No

Menu
00:00:00.000                             : en:Chapter 01
00:05:22.364                             : en:Chapter 02
00:14:39.170                             : en:Chapter 03
00:20:43.826                             : en:Chapter 04
00:25:05.129                             : en:Chapter 05
00:32:36.538                             : en:Chapter 06
00:39:30.952                             : en:Chapter 07
00:44:12.859                             : en:Chapter 08
00:48:35.329                             : en:Chapter 09
00:58:29.381                             : en:Chapter 10
01:06:07.172                             : en:Chapter 11
01:14:34.970                             : en:Chapter 12
01:22:48.130                             : en:Chapter 13
01:29:33.535                             : en:Chapter 14
01:38:13.346                             : en:Chapter 15
01:43:54.061                             : en:Chapter 16
01:50:12.397                             : en:Chapter 17
[/url]



                                                                                                                                                                                                        
                                                                                                                                                                                                                                                                                                                                                                                                                                                                                                                                                                                                                                                                                                                                                                                                                                                        
b65ed195be60198586d95ec7b1401276.zip (28.55 KB, 下载次数: 20)

回复

使用道具 举报

小黑屋|磁力链接吧 |网站地图

本网站所有资源来自网络,如无意中侵犯了您的权益,请发邮件至 [email protected],立即清除相关链接

GMT+8, 2021-4-19 21:19 , Processed in 0.111920 second(s), 22 queries .

Powered by Discuz! X3.2

© 2001-2013 Comsenz Inc.

快速回复 返回顶部 返回列表