磁力链接吧

 找回密码
 立即注册
搜索

停尸房收藏/殡仪馆收藏 The.Mortuary.Collection.2019.720p.BluRay.x264...

[复制链接]
百度云资源 发表于 2021-2-26 20:57:40 | 显示全部楼层 |阅读模式
-->
帖子完整标题:停尸房收藏/殡仪馆收藏 The.Mortuary.Collection.2019.720p.BluRay.x264-SHITTYHORROR 5.71GB


[/url]

◎译  名 停尸房收藏/殡仪馆收藏
◎片  名 The Mortuary Collection
◎年  代 2019
◎产  地 美国
◎类  别 恐怖
◎语  言 英语
◎上映日期 2019-09-21(奇幻影展) / 2020-10-15(美国)
◎IMDb评分  6.5/10 from 5799 users
◎  
◎豆瓣评分 7.1/10 from 15831 users
◎ 
◎片  长 108分钟
◎导  演 瑞恩·斯宾德尔 Ryan Spindell
◎编  剧 瑞恩·斯宾德尔 Ryan Spindell
◎主  演 克兰西·布朗 Clancy Brown
       凯特琳·卡斯特 Caitlin Custer
       克里斯汀·基默 Christine Kilmer
       雅各布·艾洛蒂 Jacob Elordi
       艾玛·霍瓦特 Ema Horvath
       珍妮弗·厄文 Jennifer Irwin
       詹姆斯·巴克曼 James Bachman
       巴拉克·哈德利 Barak Hardley
       莎拉·海伊 Sarah Hay
       迈克·C·尼尔森 Mike C. Nelson
       迈克尔·鲍 Michael Bow
       汤姆·伍德鲁夫 Tom Woodruff Jr.
       山姆·艾德森 Sam Eidson
       大卫·菲耶罗 David Fierro
       约瑟芬·麦克亚当 Josephine McAdam
       伊登·坎贝尔 Eden Campbell

◎标  签 恐怖 | 惊悚 | 美国 | 奇幻 | 灵异 | 魔幻 | 美国电影 | 2019

◎简  介

  讲述少女走进一间古老的停尸房,管理员老人有很多跟尸体和死亡有关的收藏,他带女孩回顾1950-1980年代四起死亡的秘密,曾经和现在,可怕的事发生……
Video
ID                                       : 1
Format                                   : AVC
Format/Info                              : Advanced Video Codec
Format profile                           :
Format settings                          : CABAC / 8 Ref Frames
Format settings, CABAC                   : Yes
Format settings, Reference frames        : 8 frames
Codec ID                                 : V_MPEG4/ISO/AVC
Duration                                 : 1 h 50 min
Bit rate                                 : 6 594 kb/s
Width                                    : 1 280 pixels
Height                                   : 538 pixels
Display aspect ratio                     : 2.40:1
Frame rate mode                          : Constant
Frame rate                               : 23.976 (24000/1001/189150) FPS
Color space                              : YUV
Chroma subsampling                       : 4:2:0
Bit depth                                : 8 bits
Scan type                                : Progressive
Bits/(Pixel*Frame)                       : 0.399
Stream size                              : 5.11 GiB (90%)
Writing library                          : x264 core 161 r3048 b86ae3c
Encoding settings                        : cabac=1 / ref=8 / deblock=1:-3:-3 / analyse=0x3:0x133 / me=umh / subme=9 / psy=1 / psy_rd=1.00:0.00 / mixed_ref=1 / me_range=24 / chroma_me=1 / trellis=2 / 8x8dct=1 / cqm=0 / deadzone=21,11 / fast_pskip=0 / chroma_qp_offset=-2 / threads=17 / lookahead_threads=1 / sliced_threads=0 / nr=0 / decimate=0 / interlaced=0 / bluray_compat=0 / constrained_intra=0 / bframes=3 / b_pyramid=2 / b_adapt=2 / b_bias=0 / direct=3 / weightb=1 / open_gop=0 / weightp=2 / keyint=250 / keyint_min=23 / scenecut=40 / intra_refresh=0 / rc=crf / mbtree=0 / crf=15.5 / qcomp=0.60 / qpmin=0 / qpmax=69 / qpstep=4 / ip_ratio=1.40 / pb_ratio=1.30 / aq=3:0.80
Default                                  : Yes
Forced                                   : No
Color range                              : Limited
Matrix coefficients                      : BT.709

Audio #1
ID                                       : 2
Format                                   : AC-3
Format/Info                              : Audio Coding 3
Commercial name                          : Dolby Digital
Codec ID                                 : A_AC3
Duration                                 : 1 h 50 min
Bit rate mode                            : Constant
Bit rate                                 : 640 kb/s
Channel(s)                               : 6 channels
Channel layout                           : L R C LFE Ls Rs
Sampling rate                            : 48.0 kHz
Frame rate                               : 31.250 FPS (1536 SPF)
Compression mode                         : Lossy
Stream size                              : 508 MiB (9%)
Title                                    : AC-3 5.1
Language                                 : English
Service kind                             : Complete Main
Default                                  : Yes
Forced                                   : No

Audio #2
ID                                       : 4
Format                                   : AAC LC
Format/Info                              : Advanced Audio Codec Low Complexity
Codec ID                                 : A_AAC-2
Duration                                 : 1 h 50 min
Bit rate                                 : 123 kb/s
Channel(s)                               : 2 channels
Channel layout                           : L R
Sampling rate                            : 48.0 kHz
Frame rate                               : 46.875 FPS (1024 SPF)
Compression mode                         : Lossy
Delay relative to video                  : 9 ms
Stream size                              : 97.3 MiB (2%)
Title                                    : Commentary
Language                                 : English
Default                                  : No
Forced                                   : No

Text
ID                                       : 3
Format                                   : PGS
Muxing mode                              : zlib
Codec ID                                 : S_HDMV/PGS
Codec ID/Info                            : Picture based subtitle format used on BDs/HD-DVDs
Duration                                 : 1 h 46 min
Bit rate                                 : 19.8 kb/s
Count of elements                        : 1480
Stream size                              : 15.1 MiB (0%)
Title                                    : German
Language                                 : German
Default                                  : No
Forced                                   : No

Menu
00:00:00.000                             : en:Chapter 01
00:07:36.998                             : en:Chapter 02
00:11:08.001                             : en:Chapter 03
00:16:33.284                             : en:Chapter 04
00:19:37.927                             : en:Chapter 05
00:45:07.788                             : en:Chapter 06
00:48:57.017                             : en:Chapter 07
01:14:33.177                             : en:Chapter 08
01:18:26.785                             : en:Chapter 09
01:37:01.357                             : en:Chapter 10
01:39:39.307                             : en:Chapter 11
01:46:47.818                             : en:Chapter 12
[/url]



                                                                                                                                                                                                        
                                                                                                                                                                                                                                                                                                                                                                                                                                                                                                                                                                                                                                                                                                                                                                                                                                                        
1b53f2e4caa6da5b5e73412c37ab9344.zip (29.28 KB, 下载次数: 7)

回复

使用道具 举报

小黑屋|磁力链接吧 |网站地图

本网站所有资源来自网络,如无意中侵犯了您的权益,请发邮件至 [email protected],立即清除相关链接

GMT+8, 2021-4-16 10:56 , Processed in 0.161668 second(s), 22 queries .

Powered by Discuz! X3.2

© 2001-2013 Comsenz Inc.

快速回复 返回顶部 返回列表