磁力链接吧

 找回密码
 立即注册
搜索

傅满洲的城堡 The.Castle.of.Fu.Manchu.1969.720p.BluRay.x264-GAZER 6.10GB

[复制链接]
百度云资源 发表于 2021-2-26 20:57:40 | 显示全部楼层 |阅读模式
-->
帖子完整标题:傅满洲的城堡 The.Castle.of.Fu.Manchu.1969.720p.BluRay.x264-GAZER 6.10GB


[/url]

◎译  名 傅满洲的城堡/Sax Rohmer's The Castle of Fu Manchu
◎片  名 Die Folterkammer des Dr. Fu Man Chu
◎年  代 1969
◎产  地 西德,意大利,西班牙,英国,列支敦士登
◎类  别 剧情 / 动作 / 惊悚 / 恐怖 / 犯罪 / 冒险
◎语  言 英语
◎上映日期 1969-05-30
◎IMDb评分  2.9/10 from 1831 users
◎  
◎豆瓣评分 /10 from 0 users
◎ 
◎片  长 Germany: 85 分钟
◎导  演 赫苏斯·佛朗哥 Jesus Franco
◎编  剧 曼弗雷德·巴特尔 Manfred Barthel / 哈利·阿兰·托尔斯 Harry Alan Towers / 海梅·赫苏斯·巴尔卡扎尔 Jaime Jesús Balcázar / 萨克斯·儒默 Sax Rohmer
◎主  演 克里斯托弗·李 Christopher Lee
       理查德·格林 Richard Greene
       霍华德·马里昂-克劳福德 Howard Marion-Crawford
       周采芹 Tsai Chin
       欧露莎尔芭·奈丽 Rosalba Neri
       Gustavo Re
       何塞·曼努埃尔·马丁 José Manuel Martín
       Werner Abrolat
       赫苏斯·佛朗哥 Jesus Franco
       玛利亚·珀丝齐 Maria Perschy
       郭弼 Burt Kwouk
       金特·施托尔 Günther Stoll

◎标  签 傅满洲 | 恐怖 | 魔幻 | 犯罪 | 英国 | 德国 | 1960s | 我看过的英语电影

◎简  介

  暂无相关剧情介绍
Video
ID                                       : 1
Format                                   : AVC
Format/Info                              : Advanced Video Codec
Format profile                           :
Format settings                          : CABAC / 9 Ref Frames
Format settings, CABAC                   : Yes
Format settings, Reference frames        : 9 frames
Codec ID                                 : V_MPEG4/ISO/AVC
Duration                                 : 1 h 32 min
Bit rate                                 : 9 232 kb/s
Width                                    : 1 194 pixels
Height                                   : 720 pixels
Display aspect ratio                     : 5:3
Frame rate mode                          : Constant
Frame rate                               : 23.976 (24000/1001/189150) FPS
Color space                              : YUV
Chroma subsampling                       : 4:2:0
Bit depth                                : 8 bits
Scan type                                : Progressive
Bits/(Pixel*Frame)                       : 0.448
Stream size                              : 5.95 GiB (98%)
Writing library                          : x264 core 161 r3043 59c0609
Encoding settings                        : cabac=1 / ref=9 / deblock=1:-3:-3 / analyse=0x3:0x133 / me=umh / subme=10 / psy=1 / psy_rd=1.50:0.15 / mixed_ref=1 / me_range=24 / chroma_me=1 / trellis=2 / 8x8dct=1 / cqm=0 / deadzone=21,11 / fast_pskip=0 / chroma_qp_offset=-3 / threads=6 / lookahead_threads=1 / sliced_threads=0 / nr=0 / decimate=0 / interlaced=0 / bluray_compat=0 / constrained_intra=0 / bframes=8 / b_pyramid=2 / b_adapt=2 / b_bias=0 / direct=3 / weightb=1 / open_gop=0 / weightp=2 / keyint=250 / keyint_min=23 / scenecut=40 / intra_refresh=0 / rc_lookahead=60 / rc=crf / mbtree=1 / crf=19.5 / qcomp=0.60 / qpmin=0 / qpmax=69 / qpstep=4 / ip_ratio=1.40 / aq=3:0.50
Default                                  : Yes
Forced                                   : No
Color range                              : Limited
Matrix coefficients                      : BT.709

Audio
ID                                       : 2
Format                                   : FLAC
Format/Info                              : Free Lossless Audio Codec
Codec ID                                 : A_FLAC
Duration                                 : 1 h 32 min
Bit rate mode                            : Variable
Bit rate                                 : 223 kb/s
Channel(s)                               : 1 channel
Channel layout                           : C
Sampling rate                            : 48.0 kHz
Frame rate                               : 11.719 FPS (4096 SPF)
Bit depth                                : 16 bits
Compression mode                         : Lossless
Stream size                              : 147 MiB (2%)
Writing library                          : libFLAC 1.3.2 (UTC 2017-01-01)
Language                                 : English
Default                                  : Yes
Forced                                   : No

Text
ID                                       : 3
Format                                   : PGS
Muxing mode                              : zlib
Codec ID                                 : S_HDMV/PGS
Codec ID/Info                            : Picture based subtitle format used on BDs/HD-DVDs
Duration                                 : 1 h 31 min
Bit rate                                 : 23.9 kb/s
Count of elements                        : 1668
Stream size                              : 15.7 MiB (0%)
Title                                    : SDH
Language                                 : English
Default                                  : No
Forced                                   : No

Menu
00:00:00.000                             : en:Chapter 01
00:16:44.712                             : en:Chapter 02
00:25:10.342                             : en:Chapter 03
00:32:13.306                             : en:Chapter 04
00:40:10.491                             : en:Chapter 05
00:50:21.810                             : en:Chapter 06
00:56:55.537                             : en:Chapter 07
01:06:16.764                             : en:Chapter 08
01:18:00.467                             : en:Chapter 09
01:27:01.341                             : en:Chapter 10
[/url]



                                                                                                                                                                                                        
                                                                                                                                                                                                                                                                                                                                                                                                                                                                                                                                                                                                                                                                                                                                                                                                                                                        
15a107e1d498afa658e0414e91df0cf8.zip (31.21 KB, 下载次数: 6)

回复

使用道具 举报

小黑屋|磁力链接吧 |网站地图

本网站所有资源来自网络,如无意中侵犯了您的权益,请发邮件至 [email protected],立即清除相关链接

GMT+8, 2021-4-16 09:39 , Processed in 0.125103 second(s), 22 queries .

Powered by Discuz! X3.2

© 2001-2013 Comsenz Inc.

快速回复 返回顶部 返回列表