磁力链接吧

 找回密码
 立即注册
搜索

滚雷巡演:鲍勃·迪伦传奇/奔雷秀 Rolling.Thunder.Revue.A.Bob.Dylan.... ...

[复制链接]
百度云资源 发表于 2021-2-26 20:37:26 | 显示全部楼层 |阅读模式
-->
帖子完整标题:滚雷巡演:鲍勃·迪伦传奇/奔雷秀 Rolling.Thunder.Revue.A.Bob.Dylan.Story.by.Martin.Scorsese.2019.1080p.BluRay.x264-DEV0 21.84GB


[/url]

◎译  名 滚雷巡演:鲍勃·迪伦传奇/奔雷秀/滚雷秀
◎片  名 Rolling Thunder Revue: A Bob Dylan Story by Martin Scorsese
◎年  代 2019
◎产  地 美国
◎类  别 纪录片
◎语  言 英语
◎上映日期 2019-06-12(美国)
◎IMDb评分  7.6/10 from 5420 users
◎  
◎豆瓣评分 8.8/10 from 1234 users
◎ 
◎片  长 142分钟
◎导  演 马丁·斯科塞斯 Martin Scorsese
◎主  演 鲍勃·迪伦 Bob Dylan
       艾伦·金斯堡 Allen Ginsberg
       帕蒂·史密斯 Patti Smith
       琼·贝兹 Joan Baez
       罗杰·麦吉恩 Roger McGuinn
       山姆·夏普德 Sam Shepard
       安·瓦尔德曼 Anne Waldman
       罗尼·布莱克利 Ronee Blakley
       乔尼·米切尔 Joni Mitchell
       鲁宾·哈里肯·卡特 Rubin 'Hurricane' Carter
       迈克尔·墨菲 Michael Murphy
       克劳迪娅·利维 Claudia Levy
       彼得·奥尔洛夫斯基 Peter Orlovsky
       T-本恩·本内特 T-Bone Burnett
       Mick Ronson
       David Mansfield
       Roberta Flack
       Gordon Lightfoot
       Ronnie Hawkins
       Jacques Levy
       Eric Andersen
       Walter Yetnikoff
       Bob Neuwirth
       拉瑞·斯洛曼 Larry 'Ratso' Sloman

◎标  签 纪录片 | 鲍勃迪伦 | 音乐 | 美国 | 摇滚 | Netflix | 2019 | 民谣

◎简  介

  该片改编自迪伦1975年至1976年的《奔雷秀》巡演,片中将包括迪伦本人的幕前采访。本片被描述为捕捉到了1975年陷入困境的美国精神以及迪伦在那年秋天演奏的欢乐音乐。据悉本片不会以传统纪录片的形式展开叙述。

◎获奖情况

  第67届美国音效剪辑协会奖 ?(2020)
  金卷轴奖最佳纪录片音效剪辑(提名)
  金卷轴奖最佳音乐片音乐剪辑(提名)
  
  第91届美国国家评论协会奖 ?(2019)
  五佳纪录片
Video
ID                                       : 1
Format                                   : AVC
Format/Info                              : Advanced Video Codec
Format profile                           :
Format settings                          : CABAC / 4 Ref Frames
Format settings, CABAC                   : Yes
Format settings, Reference frames        : 4 frames
Codec ID                                 : V_MPEG4/ISO/AVC
Duration                                 : 2 h 22 min
Bit rate                                 : 18.5 Mb/s
Width                                    : 1 920 pixels
Height                                   : 1 080 pixels
Display aspect ratio                     : 16:9
Frame rate mode                          : Constant
Frame rate                               : 23.976 (24000/1001/189150) FPS
Color space                              : YUV
Chroma subsampling                       : 4:2:0
Bit depth                                : 8 bits
Scan type                                : Progressive
Bits/(Pixel*Frame)                       : 0.371
Stream size                              : 18.4 GiB (84%)
Writing library                          : x264 core 161 r3027 4121277
Encoding settings                        : cabac=1 / ref=4 / deblock=1:-3:-3 / analyse=0x3:0x133 / me=umh / subme=10 / psy=1 / psy_rd=1.00:0.15 / mixed_ref=1 / me_range=24 / chroma_me=1 / trellis=2 / 8x8dct=1 / cqm=0 / deadzone=21,11 / fast_pskip=1 / chroma_qp_offset=-3 / threads=18 / lookahead_threads=3 / sliced_threads=0 / nr=0 / decimate=1 / interlaced=0 / bluray_compat=0 / constrained_intra=0 / bframes=8 / b_pyramid=2 / b_adapt=2 / b_bias=0 / direct=3 / weightb=1 / open_gop=0 / weightp=2 / keyint=250 / keyint_min=23 / scenecut=40 / intra_refresh=0 / rc_lookahead=60 / rc=crf / mbtree=1 / crf=22.7 / qcomp=0.60 / qpmin=0 / qpmax=69 / qpstep=4 / ip_ratio=1.40 / aq=3:0.50
Language                                 : English
Default                                  : Yes
Forced                                   : No

Audio
ID                                       : 2
Format                                   : DTS XLL
Format/Info                              : Digital Theater Systems
Commercial name                          : DTS-HD Master Audio
Codec ID                                 : A_DTS
Duration                                 : 2 h 22 min
Bit rate mode                            : Variable
Bit rate                                 : 3 448 kb/s
Channel(s)                               : 6 channels
Channel layout                           : C L R Ls Rs LFE
Sampling rate                            : 48.0 kHz
Frame rate                               : 93.750 FPS (512 SPF)
Bit depth                                : 24 bits
Compression mode                         : Lossless
Stream size                              : 3.43 GiB (16%)
Language                                 : English
Default                                  : Yes
Forced                                   : No

Text #1
ID                                       : 3
Format                                   : UTF-8
Codec ID                                 : S_TEXT/UTF8
Codec ID/Info                            : UTF-8 Plain Text
Duration                                 : 2 h 20 min
Bit rate                                 : 92 b/s
Count of elements                        : 2311
Stream size                              : 95.5 KiB (0%)
Title                                    : English
Language                                 : English
Default                                  : No
Forced                                   : No

Text #2
ID                                       : 4
Format                                   : UTF-8
Codec ID                                 : S_TEXT/UTF8
Codec ID/Info                            : UTF-8 Plain Text
Duration                                 : 2 h 21 min
Bit rate                                 : 99 b/s
Count of elements                        : 2432
Stream size                              : 103 KiB (0%)
Title                                    : English SDH
Language                                 : English
Default                                  : No
Forced                                   : No

Text #3
ID                                       : 5
Format                                   : PGS
Muxing mode                              : zlib
Codec ID                                 : S_HDMV/PGS
Codec ID/Info                            : Picture based subtitle format used on BDs/HD-DVDs
Duration                                 : 2 h 21 min
Bit rate                                 : 13.5 kb/s
Count of elements                        : 4865
Stream size                              : 13.7 MiB (0%)
Title                                    : English SDH
Language                                 : English
Default                                  : No
Forced                                   : No

Menu
00:00:00.000                             : en:00:00:00.000
00:06:38.023                             : en:00:06:38.023
00:10:56.948                             : en:00:10:56.948
00:13:51.372                             : en:00:13:51.372
00:16:29.989                             : en:00:16:29.989
00:20:40.739                             : en:00:20:40.739
00:26:38.597                             : en:00:26:38.597
00:27:49.626                             : en:00:27:49.626
00:34:57.012                             : en:00:34:57.012
00:41:52.927                             : en:00:41:52.927
00:49:44.064                             : en:00:49:44.064
00:54:59.087                             : en:00:54:59.087
01:01:59.341                             : en:01:01:59.341
01:09:27.455                             : en:01:09:27.455
01:14:52.363                             : en:01:14:52.363
01:23:04.313                             : en:01:23:04.313
01:33:37.362                             : en:01:33:37.362
01:39:17.952                             : en:01:39:17.952
01:44:52.411                             : en:01:44:52.411
01:48:12.695                             : en:01:48:12.695
01:53:55.287                             : en:01:53:55.287
01:56:55.717                             : en:01:56:55.717
02:10:22.898                             : en:02:10:22.898
02:18:07.696                             : en:02:18:07.696




                                                                                                                                                                                                        
                                                                                                                                                                                                                                                                                                                                                                                                                                                                                                                                                                                                                                                                                                                                                                                                                                                        
f2b1d008066ab097775ea5227443e36a.zip (110.04 KB, 下载次数: 14)

回复

使用道具 举报

小黑屋|磁力链接吧 |网站地图

本网站所有资源来自网络,如无意中侵犯了您的权益,请发邮件至 [email protected],立即清除相关链接

GMT+8, 2021-4-20 09:23 , Processed in 0.133174 second(s), 22 queries .

Powered by Discuz! X3.2

© 2001-2013 Comsenz Inc.

快速回复 返回顶部 返回列表