磁力链接吧

 找回密码
 立即注册
搜索

[师兄撞鬼][BT下载][BD-MP4/4.77GB][国语中字][1080P][Mp4Ba]

[复制链接]
百度云资源 发表于 2021-2-25 21:54:54 | 显示全部楼层 |阅读模式
-->


◎译  名 师兄撞鬼/Look Out, Officer!
◎片  名 師兄撞鬼
◎年  代 1990
◎产  地 中国香港
◎类  别 喜剧/动作/奇幻
◎语  言 粤语
◎上映日期 1990-07-28
◎IMDb评分  5.9/10 from 720 users
◎导  演 刘仕裕 Sze Yu Lau
◎编  剧 徐正康 Cheng-kang Tse
◎主  演 周星驰 Stephen Chow
       陈德容 Vivian Chan
       冯淬帆 Stanley Fung
       叶子楣 Amy Yip
       董骠 Bill Tung
       方刚 Kong Fong
       梅小惠 Siu-Wai Mui
       英德拉·利奇 Indra Leech
       陈立品 Maria Chan
       麦欣华 Yan-wa Mak


◎标  签 周星驰 | 喜剧 | 香港 | 香港电影 | 搞笑 | 1990 | 董骠 | 电影


◎简  介


  
  探员张骠(董骠 饰)在调查一起制毒案时被毒枭邓立洋(方刚 饰)杀害,邓将现场伪装成张骠因赌债自杀。死后的张骠不甘名誉受损,贿赂阴间法官得以还阳,由此开始寻找救星雪恨。这边厢,警队新人阿星(周星驰 饰)与张骠老搭档李锦(冯淬帆 饰)搭配成新的小组,张骠因阿星是自己命定救星,遂附身于枪上,施法帮助阿星接近李锦之女阿玉(陈德容 饰),以使其帮助自己报仇。邓立洋预感张骠返阳,请出张骠命定克星邪法师助阵。习练茅山道术的李锦被张骠阿星二人整治,心怀不满伺机报复,却被邪法师利用,将张骠鬼魂封印。经茅山祖师指点,阿星与李锦准备了破法灵药,更请出祖师附身与邓立洋、邪法师决战。
General
Complete name                  : Z:\001\师兄撞鬼.Look.Out.Officer.1990.BD720P+1080P.X264.AAC.Cantonese&Mandarin.CHS.Mp4Ba\师兄撞鬼.Look.Out.Officer.1990.BD1080P.X264.AAC.Cantonese&Mandarin.CHS.Mp4Ba.mp4
Format                         : MPEG-4
Format profile                 : Base Media
Codec ID                       : isom (isom/avc1)
File size                      : 4.78 GiB
Duration                       : 1 h 32 min
Overall bit rate mode          : Variable
Overall bit rate               : 7 429 kb/s
Encoded date                   : UTC 2017-05-04 03:51:37
Tagged date                    : UTC 2017-05-04 03:51:37


Video
ID                             : 1
Format                         : AVC
Format/Info                    : Advanced Video Codec
Format settings                : CABAC / 4 Ref Frames
Format settings, CABAC         : Yes
Format settings, Reference fra : 4 frames
Codec ID                       : avc1
Codec ID/Info                  : Advanced Video Coding
Duration                       : 1 h 32 min
Bit rate                       : 6 810 kb/s
Maximum bit rate               : 45.8 Mb/s
Width                          : 1 920 pixels
Height                         : 1 032 pixels
Display aspect ratio           : 1.85:1
Frame rate mode                : Constant
Frame rate                     : 24.000 FPS
Color space                    : YUV
Chroma subsampling             : 4:2:0
Bit depth                      : 8 bits
Scan type                      : Progressive
Bits/(Pixel*Frame)             : 0.143
Stream size                    : 4.38 GiB (92%)
Title                          : Mp4Ba
Encoded date                   : UTC 2017-05-04 03:51:37
Tagged date                    : UTC 2017-05-04 03:52:57
Codec configuration box        : avcC


Audio #1
ID                             : 2
Format                         : AAC LC
Format/Info                    : Advanced Audio Codec Low Complexity
Codec ID                       : mp4a-40-2
Duration                       : 1 h 32 min
Bit rate mode                  : Variable
Bit rate                       : 298 kb/s
Maximum bit rate               : 359 kb/s
Channel(s)                     : 2 channels
Channel layout                 : L R
Sampling rate                  : 48.0 kHz
Frame rate                     : 46.875 FPS (1024 SPF)
Compression mode               : Lossy
Stream size                    : 196 MiB (4%)
Title                          : Cantonese
Encoded date                   : UTC 2017-05-04 01:54:40
Tagged date                    : UTC 2017-05-04 03:52:57


Audio #2
ID                             : 3
Format                         : AAC LC
Format/Info                    : Advanced Audio Codec Low Complexity
Codec ID                       : mp4a-40-2
Duration                       : 1 h 32 min
Bit rate mode                  : Variable
Bit rate                       : 315 kb/s
Maximum bit rate               : 360 kb/s
Channel(s)                     : 2 channels
Channel layout                 : L R
Sampling rate                  : 48.0 kHz
Frame rate                     : 46.875 FPS (1024 SPF)
Compression mode               : Lossy
Stream size                    : 208 MiB (4%)
Title                          : Mandarin
Encoded date                   : UTC 2017-05-04 01:52:36
Tagged date                    : UTC 2017-05-04 03:52:57

 


                                                                                                                                                                                                        
                                                                                                                                                                                                                                                                                                                                                                                                                                                                                                                                 
5f27d7cd6fa17de0e32de253c7bec580.torrent (38.64 KB, 下载次数: 17)

回复

使用道具 举报

小黑屋|磁力链接吧 |网站地图

本网站所有资源来自网络,如无意中侵犯了您的权益,请发邮件至 [email protected],立即清除相关链接

GMT+8, 2021-4-16 08:19 , Processed in 0.126161 second(s), 22 queries .

Powered by Discuz! X3.2

© 2001-2013 Comsenz Inc.

快速回复 返回顶部 返回列表