磁力链接吧

 找回密码
 立即注册
搜索

神奇战警 Red.Sun.Rising.1994.720p.BluRay.x264-GUACAMOLE 3.20GB

[复制链接]
百度云资源 发表于 2021-2-24 20:28:49 | 显示全部楼层 |阅读模式
帖子完整标题:神奇战警 Red.Sun.Rising.1994.720p.BluRay.x264-GUACAMOLE 3.20GB


[/url]

◎译  名 神奇战警
◎片  名 Red Sun Rising
◎年  代 1994
◎产  地 美国
◎类  别 动作
◎语  言 英语
◎上映日期 1994
◎片  长 95分钟
◎导  演 佛朗西斯·梅吉 Francis Megahy
◎编  剧 Robert Easter
◎主  演 肯·戴维蒂安 Ken Davitian
       Danny Lopez
       冈本玉二 Yuji Okumoto
       Toshir? Obata
       吴顺泰 Soon-Tek Oh
       Leisa Sheridan
       Mike Sims
       Forry Smith
       安田显 Ken Yasuda
       迈克尔·艾恩塞德 Michael Ironside
       斯托尼杰克逊 Stoney Jackson
       Howard Jackson
       Richard Rabago
       杰奎琳·奥拉德丝 Jacqueline Obradors
       爱德华·艾伯特 Edward Albert
       岩松信 Makoto Iwamatsu
       唐龙·威尔逊 Don 'The Dragon' Wilson
       詹姆斯·卢 James Lew
       特里·法瑞尔 Terry Farrell
       Dwayne Alexandre
       史蒂夫·伯顿 Steve Burton
       沙沙维恩·豪尔 Shashawnee Hall

◎标  签 动作 | 美国 | 看过很多次但找不到资源了 | 童年 | ss | 'The | 亚裔功夫肌肉男 | Dragon'

◎简  介

  暂无相关剧情介绍
Video
ID                                       : 1
Format                                   : AVC
Format/Info                              : Advanced Video Codec
Format settings                          : CABAC / 8 Ref Frames
Format settings, CABAC                   : Yes
Format settings, Reference frames        : 8 frames
Codec ID                                 : V_MPEG4/ISO/AVC
Duration                                 : 1 h 39 min
Bit rate                                 : 4 021 kb/s
Width                                    : 1 280 pixels
Height                                   : 720 pixels
Display aspect ratio                     : 16:9
Frame rate mode                          : Constant
Frame rate                               : 23.976 (24000/1001/189150) FPS
Color space                              : YUV
Chroma subsampling                       : 4:2:0
Bit depth                                : 8 bits
Scan type                                : Progressive
Bits/(Pixel*Frame)                       : 0.182
Stream size                              : 2.79 GiB (87%)
Writing library                          : x264 core 161 r3048 b86ae3c
Encoding settings                        : cabac=1 / ref=8 / deblock=1:-3:-3 / analyse=0x3:0x133 / me=umh / subme=9 / psy=1 / psy_rd=1.00:0.00 / mixed_ref=1 / me_range=16 / chroma_me=1 / trellis=2 / 8x8dct=1 / cqm=0 / deadzone=21,11 / fast_pskip=0 / chroma_qp_offset=-2 / threads=22 / lookahead_threads=1 / sliced_threads=0 / nr=0 / decimate=1 / interlaced=0 / bluray_compat=0 / constrained_intra=0 / bframes=3 / b_pyramid=2 / b_adapt=2 / b_bias=0 / direct=3 / weightb=1 / open_gop=0 / weightp=2 / keyint=250 / keyint_min=23 / scenecut=40 / intra_refresh=0 / rc_lookahead=60 / rc=crf / mbtree=1 / crf=17.0 / qcomp=0.60 / qpmin=0 / qpmax=69 / qpstep=4 / ip_ratio=1.40 / aq=3:0.60
Default                                  : Yes
Forced                                   : No
Color range                              : Limited
Matrix coefficients                      : BT.709

Audio
ID                                       : 2
Format                                   : FLAC
Format/Info                              : Free Lossless Audio Codec
Codec ID                                 : A_FLAC
Duration                                 : 1 h 39 min
Bit rate mode                            : Variable
Bit rate                                 : 556 kb/s
Channel(s)                               : 2 channels
Channel layout                           : L R
Sampling rate                            : 48.0 kHz
Frame rate                               : 11.719 FPS (4096 SPF)
Bit depth                                : 16 bits
Compression mode                         : Lossless
Stream size                              : 396 MiB (12%)
Writing library                          : libFLAC 1.2.1 (UTC 2007-09-17)
Language                                 : English
Default                                  : Yes
Forced                                   : No

Text #1
ID                                       : 3
Format                                   : PGS
Muxing mode                              : zlib
Codec ID                                 : S_HDMV/PGS
Codec ID/Info                            : Picture based subtitle format used on BDs/HD-DVDs
Duration                                 : 1 h 39 min
Bit rate                                 : 25.2 kb/s
Count of elements                        : 2133
Stream size                              : 17.9 MiB (1%)
Title                                    : Vobsubs
Language                                 : English
Default                                  : No
Forced                                   : No

Text #2
ID                                       : 4
Format                                   : PGS
Muxing mode                              : zlib
Codec ID                                 : S_HDMV/PGS
Codec ID/Info                            : Picture based subtitle format used on BDs/HD-DVDs
Duration                                 : 1 h 33 min
Bit rate                                 : 21.6 kb/s
Count of elements                        : 1712
Stream size                              : 14.4 MiB (0%)
Title                                    : Vobsubs
Language                                 : German
Default                                  : No
Forced                                   : No

Menu
00:00:00.000                             : en:00:00:00.000
00:09:27.567                             : en:00:09:27.567
00:15:27.927                             : en:00:15:27.927
00:24:11.450                             : en:00:24:11.450
00:32:04.923                             : en:00:32:04.923
00:40:59.457                             : en:00:40:59.457
00:49:16.954                             : en:00:49:16.954
00:58:00.477                             : en:00:58:00.477
01:05:43.940                             : en:01:05:43.940
01:13:31.407                             : en:01:13:31.407
01:23:27.002                             : en:01:23:27.002
01:30:13.408                             : en:01:30:13.408
[/url]



                                                                                                                                                                                                        
                                                                                                                                                                                                                                                                                                                                                                                                                                                                                                                                                                                                                                                                                                                                                                                                                                                        
cb5d86b3ecba4ba8b2db7deaf2e2a2b5.zip (32.66 KB, 下载次数: 2)

回复

使用道具 举报

小黑屋|磁力链接吧 |网站地图

本网站所有资源来自网络,如无意中侵犯了您的权益,请发邮件至 [email protected],立即清除相关链接

GMT+8, 2021-4-20 08:38 , Processed in 0.111529 second(s), 22 queries .

Powered by Discuz! X3.2

© 2001-2013 Comsenz Inc.

快速回复 返回顶部 返回列表