磁力链接吧

 找回密码
 立即注册
搜索

同学聚会大屠杀 The.Redeemer.Son.of.Satan.1978.720p.BluRay.x264-GUACAMO...

[复制链接]
百度云资源 发表于 2021-2-24 20:28:49 | 显示全部楼层 |阅读模式
帖子完整标题:同学聚会大屠杀 The.Redeemer.Son.of.Satan.1978.720p.BluRay.x264-GUACAMOLE 3.54GB


[/url]

◎译  名 同学聚会大屠杀/The Redeemer: Son of Satan
◎片  名 Class Reunion Massacre
◎年  代 1978
◎产  地 美国
◎类  别 恐怖
◎语  言 英语
◎上映日期 1978-04-07
◎IMDb评分  5.3/10 from 914 users
◎片  长 84 分钟
◎主  演 珍内塔·阿尔内特 Jeannetta Arnette
       J.G. Hertzler
       Jon Crispin

◎标  签 恐怖 | 同学聚会大屠杀 | 血腥 | 惊悚 | 美国电影 | 美国 | 国外电影

◎简  介

  Six people are trapped within the confines of their old high school during their 10th high school reunion with a psychotic, masked preacher who kills them off for their sinful lives they have made for themselves
Video
ID                                       : 1
Format                                   : AVC
Format/Info                              : Advanced Video Codec
Format settings                          : CABAC / 8 Ref Frames
Format settings, CABAC                   : Yes
Format settings, Reference frames        : 8 frames
Codec ID                                 : V_MPEG4/ISO/AVC
Duration                                 : 1 h 22 min
Bit rate                                 : 5 629 kb/s
Width                                    : 1 280 pixels
Height                                   : 720 pixels
Display aspect ratio                     : 16:9
Frame rate mode                          : Constant
Frame rate                               : 23.976 (24000/1001/189150) FPS
Color space                              : YUV
Chroma subsampling                       : 4:2:0
Bit depth                                : 8 bits
Scan type                                : Progressive
Bits/(Pixel*Frame)                       : 0.255
Stream size                              : 3.26 GiB (92%)
Writing library                          : x264 core 161 r3048 b86ae3c
Encoding settings                        : cabac=1 / ref=8 / deblock=1:-3:-3 / analyse=0x3:0x133 / me=umh / subme=9 / psy=1 / psy_rd=1.00:0.00 / mixed_ref=1 / me_range=16 / chroma_me=1 / trellis=2 / 8x8dct=1 / cqm=0 / deadzone=21,11 / fast_pskip=0 / chroma_qp_offset=-2 / threads=22 / lookahead_threads=1 / sliced_threads=0 / nr=0 / decimate=1 / interlaced=0 / bluray_compat=0 / constrained_intra=0 / bframes=3 / b_pyramid=2 / b_adapt=2 / b_bias=0 / direct=3 / weightb=1 / open_gop=0 / weightp=2 / keyint=250 / keyint_min=23 / scenecut=40 / intra_refresh=0 / rc_lookahead=60 / rc=crf / mbtree=1 / crf=17.0 / qcomp=0.60 / qpmin=0 / qpmax=69 / qpstep=4 / ip_ratio=1.40 / aq=3:0.60
Default                                  : Yes
Forced                                   : No
Color range                              : Limited
Matrix coefficients                      : BT.709

Audio
ID                                       : 2
Format                                   : FLAC
Format/Info                              : Free Lossless Audio Codec
Codec ID                                 : A_FLAC
Duration                                 : 1 h 22 min
Bit rate mode                            : Variable
Bit rate                                 : 471 kb/s
Channel(s)                               : 2 channels
Channel layout                           : L R
Sampling rate                            : 48.0 kHz
Frame rate                               : 11.719 FPS (4096 SPF)
Bit depth                                : 16 bits
Compression mode                         : Lossless
Stream size                              : 279 MiB (8%)
Writing library                          : libFLAC 1.2.1 (UTC 2007-09-17)
Language                                 : English
Default                                  : Yes
Forced                                   : No

Text #1
ID                                       : 3
Format                                   : PGS
Muxing mode                              : zlib
Codec ID                                 : S_HDMV/PGS
Codec ID/Info                            : Picture based subtitle format used on BDs/HD-DVDs
Duration                                 : 1 h 8 min
Bit rate                                 : 19.9 kb/s
Count of elements                        : 1194
Stream size                              : 9.75 MiB (0%)
Title                                    : Vobsubs
Language                                 : English
Default                                  : No
Forced                                   : No

Text #2
ID                                       : 4
Format                                   : PGS
Muxing mode                              : zlib
Codec ID                                 : S_HDMV/PGS
Codec ID/Info                            : Picture based subtitle format used on BDs/HD-DVDs
Duration                                 : 1 h 8 min
Bit rate                                 : 18.4 kb/s
Count of elements                        : 1182
Stream size                              : 9.00 MiB (0%)
Title                                    : Vobsubs
Language                                 : German
Default                                  : No
Forced                                   : No

Menu
00:00:00.000                             : en:00:00:00.000
00:04:02.242                             : en:00:04:02.242
00:13:00.780                             : en:00:13:00.780
00:20:04.203                             : en:00:20:04.203
00:27:12.631                             : en:00:27:12.631
00:34:35.073                             : en:00:34:35.073
00:40:29.427                             : en:00:40:29.427
00:50:06.003                             : en:00:50:06.003
00:57:03.420                             : en:00:57:03.420
01:04:42.879                             : en:01:04:42.879
01:11:19.275                             : en:01:11:19.275
01:16:20.576                             : en:01:16:20.576
[/url]



                                                                                                                                                                                                        
                                                                                                                                                                                                                                                                                                                                                                                                                                                                                                                                                                                                                                                                                                                                                                                                                                                        
770e740a42b61fb2afca51d96d4dad38.zip (36.13 KB, 下载次数: 15)

回复

使用道具 举报

小黑屋|磁力链接吧 |网站地图

本网站所有资源来自网络,如无意中侵犯了您的权益,请发邮件至 [email protected],立即清除相关链接

GMT+8, 2021-4-16 08:21 , Processed in 0.278060 second(s), 25 queries .

Powered by Discuz! X3.2

© 2001-2013 Comsenz Inc.

快速回复 返回顶部 返回列表