磁力链接吧

 找回密码
 立即注册
搜索

地狱少女/地狱少女真人版 Hell.Girl.2019.JAPANESE.1080p.BluRay.x264-...

[复制链接]
百度云资源 发表于 2021-2-24 20:08:41 | 显示全部楼层 |阅读模式
帖子完整标题:地狱少女/地狱少女真人版 Hell.Girl.2019.JAPANESE.1080p.BluRay.x264-iKiW 7.95GB


[/url]

◎译  名 地狱少女/地狱少女真人版
◎片  名 地獄少女
◎年  代 2019
◎产  地 日本
◎类  别 恐怖
◎语  言 日语
◎上映日期 2019-11-15(日本)
◎IMDb评分  4.7/10 from 85 users
◎片  长 107分钟
◎导  演 白石晃士 K?ji Shiraishi
◎编  剧 白石晃士 K?ji Shiraishi
◎主  演 玉城蒂娜 Tina Tamashiro
       桥本爱实 Manami Hashimoto
       乐驱 Raiku
       磨赤儿 Akaji Maro
       森七菜 Nana Mori
       仁村纱和 Sawa Nimura
       大场美奈 Mina Oba
       藤田富 Tom Fujita
       波冈一喜 Kazuki Namioka

◎标  签 日本 | 日本电影 | 漫画改编 | 漫改 | 恐怖 | 漫画小说真人版 | 魔幻 | 2019

◎简  介

  讲述在午夜零时访问“地狱通信”,填写无法平息的怨恨的话,地狱少女将会出现将你所怨恨之人打入地狱的深渊。观众将跟随地狱少女阎魔爱看尽人间百态。
Video
ID                                       : 1
Format                                   : AVC
Format/Info                              : Advanced Video Codec
Format settings                          : CABAC / 5 Ref Frames
Format settings, CABAC                   : Yes
Format settings, Reference frames        : 5 frames
Codec ID                                 : V_MPEG4/ISO/AVC
Duration                                 : 1 h 47 min
Bit rate                                 : 9 930 kb/s
Width                                    : 1 920 pixels
Height                                   : 804 pixels
Display aspect ratio                     : 2.40:1
Frame rate mode                          : Constant
Frame rate                               : 23.976 (24000/1001/189150) FPS
Color space                              : YUV
Chroma subsampling                       : 4:2:0
Bit depth                                : 8 bits
Scan type                                : Progressive
Bits/(Pixel*Frame)                       : 0.268
Stream size                              : 7.47 GiB (94%)
Writing library                          : x264 core 129 r2245+704+36 8e61944 tMod+MixAQ
Encoding settings                        : cabac=1 / ref=5 / deblock=1:-3:-3 / analyse=0x3:0x133 / me=umh / subme=11 / psy=1 / fade_compensate=0.00 / psy_rd=1.00:0.10 / mixed_ref=1 / me_range=64 / chroma_me=1 / trellis=2 / 8x8dct=1 / cqm=0 / deadzone=21,11 / fast_pskip=0 / chroma_qp_offset=-3 / threads=18 / lookahead_threads=3 / sliced_threads=0 / nr=0 / decimate=0 / interlaced=0 / bluray_compat=0 / constrained_intra=0 / fgo=0 / bframes=10 / b_pyramid=2 / b_adapt=2 / b_bias=0 / direct=3 / weightb=1 / open_gop=0 / weightp=2 / keyint=250 / keyint_min=23 / scenecut=40 / intra_refresh=0 / rc=2pass / mbtree=0 / bitrate=9930 / ratetol=1.0 / qcomp=0.70 / qpmin=0 / qpmax=69 / qpstep=4 / cplxblur=20.0 / qblur=0.5 / ip_ratio=1.40 / pb_ratio=1.30 / aq=1 / aq-strength=0.90 / aq-sensitivity=10.00 / aq-ifactor=1.00 / aq-pfactor=1.00 / aq-bfactor=1.00 / aq2=0
Language                                 : Japanese
Default                                  : Yes
Forced                                   : No

Audio
ID                                       : 2
Format                                   : AC-3
Format/Info                              : Audio Coding 3
Commercial name                          : Dolby Digital
Codec ID                                 : A_AC3
Duration                                 : 1 h 47 min
Bit rate mode                            : Constant
Bit rate                                 : 640 kb/s
Channel(s)                               : 6 channels
Channel layout                           : L R C LFE Ls Rs
Sampling rate                            : 48.0 kHz
Frame rate                               : 31.250 FPS (1536 SPF)
Compression mode                         : Lossy
Stream size                              : 493 MiB (6%)
Language                                 : Japanese
Service kind                             : Complete Main
Default                                  : Yes
Forced                                   : No

Text #1
ID                                       : 3
Format                                   : UTF-8
Codec ID                                 : S_TEXT/UTF8
Codec ID/Info                            : UTF-8 Plain Text
Duration                                 : 1 h 46 min
Bit rate                                 : 36 b/s
Count of elements                        : 946
Stream size                              : 28.7 KiB (0%)
Title                                    : SRT
Language                                 : English
Default                                  : Yes
Forced                                   : No

Text #2
ID                                       : 4
Format                                   : ASS
Codec ID                                 : S_TEXT/ASS
Codec ID/Info                            : Advanced Sub Station Alpha
Duration                                 : 1 h 46 min
Bit rate                                 : 59 b/s
Count of elements                        : 968
Compression mode                         : Lossless
Stream size                              : 46.5 KiB (0%)
Title                                    : Simplified
Language                                 : Chinese
Default                                  : No
Forced                                   : No

Text #3
ID                                       : 5
Format                                   : ASS
Codec ID                                 : S_TEXT/ASS
Codec ID/Info                            : Advanced Sub Station Alpha
Duration                                 : 1 h 46 min
Bit rate                                 : 59 b/s
Count of elements                        : 968
Compression mode                         : Lossless
Stream size                              : 46.5 KiB (0%)
Title                                    : Traditional
Language                                 : Chinese
Default                                  : No
Forced                                   : No

Menu
00:00:00.000                             : en:第 01 章
00:06:46.989                             : en:第 02 章
00:09:57.263                             : en:第 03 章
00:15:10.659                             : en:第 04 章
00:20:54.836                             : en:第 05 章
00:24:26.506                             : en:第 06 章
00:32:03.504                             : en:第 07 章
00:38:49.368                             : en:第 08 章
00:45:46.410                             : en:第 09 章
00:50:36.867                             : en:第 10 章
00:58:05.023                             : en:第 11 章
01:13:04.379                             : en:第 12 章
01:20:15.685                             : en:第 13 章
01:25:25.870                             : en:第 14 章
01:28:49.866                             : en:第 15 章
01:32:38.761                             : en:第 16 章
01:43:55.896                             : en:第 17 章
01:47:40.454                             : en:第 18 章
[/url][/url][/url]



                                                                                                                                                                                                        
                                                                                                                                                                                                                                                                                                                                                                                                                                                                                                                                                                                                                                                                                                                                                                                                                                                        
98e9703059d8e9ddbbbf327f7c144a15.zip (40.4 KB, 下载次数: 6)

回复

使用道具 举报

小黑屋|磁力链接吧 |网站地图

本网站所有资源来自网络,如无意中侵犯了您的权益,请发邮件至 [email protected],立即清除相关链接

GMT+8, 2021-4-16 10:38 , Processed in 0.567086 second(s), 22 queries .

Powered by Discuz! X3.2

© 2001-2013 Comsenz Inc.

快速回复 返回顶部 返回列表