磁力链接吧

 找回密码
 立即注册
搜索

光 Guang.2018.CHINESE.1080p.BluRay.x264.DD5.1-CHD 7.70GB

[复制链接]
百度云资源 发表于 2021-2-24 20:08:41 | 显示全部楼层 |阅读模式
帖子完整标题:光 Guang.2018.CHINESE.1080p.BluRay.x264.DD5.1-CHD 7.70GB


[/url]

◎译  名 Guang
◎片  名 光
◎年  代 2018
◎产  地 马来西亚
◎类  别 剧情 / 家庭
◎语  言 汉语普通话,马来语,粤语
◎上映日期 2018-06-20(上海电影节) / 2018-11-29(马来西亚) / 2020-11-06(中国大陆)
◎IMDb评分  7.4/10 from 169 users
◎片  长 88分钟
◎导  演 郭修篆 Shio Chuan Quek
◎编  剧 郭修篆 Shio Chuan Quek
◎主  演 庄仲维 Kyo Chen
       张顺源 Ernest Chong
       陈子颖 Emily Chan

◎标  签 自闭症 | 亲情 | 马来西亚 | 感人 | 剧情 | 心理 | 馬來西亞 | 中文

◎简  介

  电影是一段围绕着两兄弟的故事。哥哥文光(庄仲维 饰)个性敏感,无法专注集中,更不善与人交际。尽管如此,弟弟(张顺源 饰)一直设法帮助文光找到工作。然而,文光屡次搞砸面试,闯祸惹麻烦,弟弟气愤又无奈。直到有一天,弟弟听到哥哥房间传来的音乐声,才意识到哥哥的音乐天赋一直默默闪耀着。

◎获奖情况

  第21届上海国际电影节 ?(2018)
  亚洲新人奖最佳影片(提名)
  亚洲新人奖最佳导演(提名) 郭修篆
  亚洲新人奖最佳男主角(提名) 庄仲维
  亚洲新人奖最佳女主角(提名) 陈子颖
Video
ID                                       : 1
Format                                   : AVC
Format/Info                              : Advanced Video Codec
Format settings                          : CABAC / 4 Ref Frames
Format settings, CABAC                   : Yes
Format settings, Reference frames        : 4 frames
Codec ID                                 : V_MPEG4/ISO/AVC
Duration                                 : 1 h 28 min
Bit rate                                 : 11.7 Mb/s
Width                                    : 1 920 pixels
Height                                   : 1 036 pixels
Display aspect ratio                     : 1.85:1
Frame rate mode                          : Constant
Frame rate                               : 24.000 FPS
Color space                              : YUV
Chroma subsampling                       : 4:2:0
Bit depth                                : 8 bits
Scan type                                : Progressive
Bits/(Pixel*Frame)                       : 0.246
Stream size                              : 7.28 GiB (95%)
Writing library                          : x264 core 157 r2867+150 7e91e0e t_mod_Custom_2 y=1 / fade_compensate=0.00 / psy_rd=0.90:0.10 / mixed_ref=1 / me_range=64 / chroma_me=1 / trellis=2 / 8x8dct=1 / cqm=0 / deadzone=21,11 / fast_pskip=0 / chroma_qp_offset=-4 / threads=32 / lookahead_threads=5 / sliced_threads=0 / nr=0 / decimate=1 / interlaced=0 / bluray_compat=0 / constrained_intra=0 / fgo=0 / bframes=8 / b_pyramid=2 / b_adapt=2 / b_bias=0 / direct=3 / weightb=1 / open_gop=0 / weightp=2 / keyint=250 / keyint_min=24 / scenecut=40 / intra_refresh=0 / rc_lookahead=60 / rc=crf / mbtree=0 / crf=18.0000 / qcomp=0.70 / qpmin=0:0:0 / qpmax=69:69:69 / qpstep=4 / vbv_maxrate=35000 / vbv_bufsize=35000 / crf_max=0.0 / nal_hrd=none / filler=0 / ip_ratio=1.40 / pb_ratio=1.30 / aq=3:1.00 / aq-sensitivity=10.00 / aq-factor=1.00:1.00:1.00 / aq2=0 / aq3=0
Default                                  : Yes
Forced                                   : No

Audio
ID                                       : 2
Format                                   : AC-3
Format/Info                              : Audio Coding 3
Commercial name                          : Dolby Digital
Codec ID                                 : A_AC3
Duration                                 : 1 h 28 min
Bit rate mode                            : Constant
Bit rate                                 : 640 kb/s
Channel(s)                               : 6 channels
Channel layout                           : L R C LFE Ls Rs
Sampling rate                            : 48.0 kHz
Frame rate                               : 31.250 FPS (1536 SPF)
Compression mode                         : Lossy
Stream size                              : 406 MiB (5%)
Language                                 : Chinese
Service kind                             : Complete Main
Default                                  : No
Forced                                   : No

Text #1
ID                                       : 3
Format                                   : UTF-8
Codec ID                                 : S_TEXT/UTF8
Codec ID/Info                            : UTF-8 Plain Text
Duration                                 : 1 h 24 min
Bit rate                                 : 48 b/s
Count of elements                        : 1075
Stream size                              : 29.9 KiB (0%)
Title                                    : SRT
Language                                 : English
Default                                  : Yes
Forced                                   : No

Text #2
ID                                       : 4
Format                                   : PGS
Muxing mode                              : zlib
Codec ID                                 : S_HDMV/PGS
Codec ID/Info                            : Picture based subtitle format used on BDs/HD-DVDs
Duration                                 : 1 h 24 min
Bit rate                                 : 22.4 kb/s
Count of elements                        : 1681
Stream size                              : 13.5 MiB (0%)
Language                                 : Chinese
Default                                  : No
Forced                                   : No

Text #3
ID                                       : 5
Format                                   : PGS
Muxing mode                              : zlib
Codec ID                                 : S_HDMV/PGS
Codec ID/Info                            : Picture based subtitle format used on BDs/HD-DVDs
Duration                                 : 1 h 24 min
Bit rate                                 : 24.0 kb/s
Count of elements                        : 1681
Stream size                              : 14.5 MiB (0%)
Language                                 : Chinese
Default                                  : No
Forced                                   : No

Text #4
ID                                       : 6
Format                                   : PGS
Muxing mode                              : zlib
Codec ID                                 : S_HDMV/PGS
Codec ID/Info                            : Picture based subtitle format used on BDs/HD-DVDs
Duration                                 : 1 h 24 min
Bit rate                                 : 24.3 kb/s
Count of elements                        : 1681
Stream size                              : 14.7 MiB (0%)
Language                                 : English
Default                                  : No
Forced                                   : No

Menu
00:00:00.000                             : en:绗?01 绔?
00:04:17.083                             : en:绗?02 绔?
00:10:05.333                             : en:绗?03 绔?
00:20:04.083                             : en:绗?04 绔?
00:27:12.792                             : en:绗?05 绔?
00:39:02.958                             : en:绗?06 绔?
00:45:46.208                             : en:绗?07 绔?
00:57:41.667                             : en:绗?08 绔?
01:04:50.000                             : en:绗?09 绔?
01:11:08.458                             : en:绗?10 绔?
01:16:31.750                             : en:绗?11 绔?
01:24:11.000                             : en:绗?12 绔?
[/url][/url][/url]



                                                                                                                                                                                                        
                                                                                                                                                                                                                                                                                                                                                                                                                                                                                                                                                                                                                                                                                                                                                                                                                                                        
7d912179e716f629d1517ac033651ec2.zip (39.13 KB, 下载次数: 8)

回复

使用道具 举报

小黑屋|磁力链接吧 |网站地图

本网站所有资源来自网络,如无意中侵犯了您的权益,请发邮件至 [email protected],立即清除相关链接

GMT+8, 2021-4-16 11:23 , Processed in 0.350157 second(s), 22 queries .

Powered by Discuz! X3.2

© 2001-2013 Comsenz Inc.

快速回复 返回顶部 返回列表