磁力链接吧

 找回密码
 立即注册
搜索

[BD-4K] 时间/天穆(官方译名) Time.2020.2160p.AMZN.WEB-DL.x265.10bit.HDR10p...

[复制链接]
百度云资源 发表于 2021-2-19 10:30:08 | 显示全部楼层 |阅读模式
-->
帖子完整标题:时间/天穆(官方译名) Time.2020.2160p.AMZN.WEB-DL.x265.10bit.HDR10plus.DDP5.1-SWTYBLZ 8.55GB


[/url]

◎译  名 时间/天穆(官方译名)
◎片  名 Time
◎年  代 2020
◎产  地 美国
◎类  别 纪录片
◎语  言 英语
◎上映日期 2020-01-25(圣丹斯电影节) / 2020-10-16(美国)
◎IMDb评分  7.2/10 from 2284 users
◎  
◎豆瓣评分 6.1/10 from 142 users
◎ 
◎片  长 81分钟
◎导  演 加雷特·布莱德利 Garrett Bradley

◎标  签 纪录片 | 美国 | 2020 | 美国电影 | Documentary | 黑白 | 2020s | Garrett_Bradley

◎简  介

  Fox Rich, indomitable matriarch and modern-day abolitionist, strives to keep her family together while fighting for the release of her incarcerated husband. An intimate, epic, and unconventional love story, filmed over two decades.

◎获奖情况

  第36届圣丹斯电影节 ?(2020)
  评审团大奖纪录片(提名) 加雷特·布莱德利
  导演奖纪录片 加雷特·布莱德利
  
  第32届美国制片人工会奖 ?(2021)
  最佳纪录片制片人奖(提名)
  
  第86届纽约影评人协会奖 ?(2020)
  最佳纪录片
  
  第92届美国国家评论协会奖 ?(2020)
  最佳纪录片
  
  第30届哥谭独立电影奖 ?(2020)
  最佳纪录片
  
  第55届美国国家影评人协会奖 ?(2021)
  最佳纪录片
  
  第41届伦敦影评人协会奖 ?(2021)
  年度纪录片(提名)
  
  第46届洛杉矶影评人协会奖 ?(2020)
  最佳剪辑(提名) 加布里埃尔·罗德斯
  最佳纪录片
  
  第33届芝加哥影评人协会奖 ?(2020)
  最佳纪录片(提名)
  
  第5届亚特兰大影评人协会奖 ?(2020)
  十佳影片(提名)
  最佳纪录片
  
  第24届美国在线影评人协会奖 ?(2021)
  最佳纪录片(提名)
[quote]Video
ID                                       : 1
Format                                   : HEVC
Format/Info                              : High Efficiency Video Coding
Format profile                           : Main @Main
HDR format                               : SMPTE ST 2094 App 4, Version 1, HDR10+ Profile B compatible
Codec ID                                 : V_MPEGH/ISO/HEVC
Duration                                 : 1 h 21 min
Bit rate                                 : 14.4 Mb/s
Width                                    : 3 840 pixels
Height                                   : 2 080 pixels
Display aspect ratio                     : 1.85:1
Frame rate mode                          : Constant
Frame rate                               : 23.976 (24000/1001/189150) FPS
Color space                              : YUV
Chroma subsampling                       : 4:2:0
Bit depth                                : 10 bits
Bits/(Pixel*Frame)                       : 0.075
Stream size                              : 8.18 GiB (96%)
Default                                  : Yes
Forced                                   : No
Color range                              : Limited
Color primaries                          : BT.2020
Transfer characteristics                 : PQ
Matrix coefficients                      : BT.2020 non-constant
Mastering display color primaries        : Display P3
Mastering display luminance              : min: 0.0001 cd/m2, max: 1000 cd/m2
Maximum Content Light Level              : 517 cd/m2
Maximum Frame-Average Light Level        : 382 cd/m2

Audio
ID                                       : 2
Format                                   : E-AC-3
Format/Info                              : Enhanced AC-3
Commercial name                          : Dolby Digital Plus
Codec ID                                 : A_EAC3
Duration                                 : 1 h 21 min
Bit rate mode                            : Constant
Bit rate                                 : 640 kb/s
Channel(s)                               : 6 channels
Channel layout                           : L R C LFE Ls Rs
Sampling rate                            : 48.0 kHz
Frame rate                               : 31.250 FPS (1536 SPF)
Compression mode                         : Lossy
Stream size                              : 372 MiB (4%)
Title                                    : DDP 5.1
Language                                 : English
Service kind                             : Complete Main
Default                                  : Yes
Forced                                   : No

Text #1
ID                                       : 3
Format                                   : UTF-8
Codec ID                                 : S_TEXT/UTF8
Codec ID/Info                            : UTF-8 Plain Text
Duration                                 : 1 h 17 min
Bit rate                                 : 76 b/s
Count of elements                        : 1176
Stream size                              : 43.5 KiB (0%)
Title                                    : SDH
Language                                 : English
Default                                  : No
Forced                                   : No

Text #2
ID                                       : 4
Format                                   : UTF-8
Codec ID                                 : S_TEXT/UTF8
Codec ID/Info                            : UTF-8 Plain Text
Duration                                 : 1 h 16 min
Bit rate                                 : 88 b/s
Count of elements                        : 928
Stream size                              : 49.1 KiB (0%)
Language                                 : Arabic
Default                                  : No
Forced                                   : No

Text #3
ID                                       : 5
Format                                   : UTF-8
Codec ID                                 : S_TEXT/UTF8
Codec ID/Info                            : UTF-8 Plain Text
Duration                                 : 1 h 16 min
Bit rate                                 : 57 b/s
Count of elements                        : 839
Stream size                              : 32.2 KiB (0%)
Language                                 : Danish
Default                                  : No
Forced                                   : No

Text #4
ID                                       : 6
Format                                   : UTF-8
Codec ID                                 : S_TEXT/UTF8
Codec ID/Info                            : UTF-8 Plain Text
Duration                                 : 1 h 16 min
Bit rate                                 : 68 b/s
Count of elements                        : 927
Stream size                              : 38.1 KiB (0%)
Language                                 : German
Default                                  : No
Forced                                   : No

Text #5
ID                                       : 7
Format                                   : UTF-8
Codec ID                                 : S_TEXT/UTF8
Codec ID/Info                            : UTF-8 Plain Text
Duration                                 : 1 h 16 min
Bit rate                                 : 61 b/s
Count of elements                        : 923
Stream size                              : 34.5 KiB (0%)
Title                                    : Espa?a
Language                                 : Spanish
Default                                  : No
Forced                                   : No

Text #6
ID                                       : 8
Format                                   : UTF-8
Codec ID                                 : S_TEXT/UTF8
Codec ID/Info                            : UTF-8 Plain Text
Duration                                 : 1 h 16 min
Bit rate                                 : 66 b/s
Count of elements                        : 931
Stream size                              : 37.0 KiB (0%)
Language                                 : Spanish
Default                                  : No
Forced                                   : No

Text #7
ID                                       : 9
Format                                   : UTF-8
Codec ID                                 : S_TEXT/UTF8
Codec ID/Info                            : UTF-8 Plain Text
Duration                                 : 1 h 16 min
Bit rate                                 : 60 b/s
Count of elements                        : 888
Stream size                              : 33.6 KiB (0%)
Language                                 : Finnish
Default                                  : No
Forced                                   : No

Text #8
ID                                       : 10
Format                                   : UTF-8
Codec ID                                 : S_TEXT/UTF8
Codec ID/Info                            : UTF-8 Plain Text
Duration                                 : 1 h 16 min
Bit rate                                 : 68 b/s
Count of elements                        : 930
Stream size                              : 38.1 KiB (0%)
Language                                 : fil
Default                                  : No
Forced                                   : No

Text #9
ID                                       : 11
Format                                   : UTF-8
Codec ID                                 : S_TEXT/UTF8
Codec ID/Info                            : UTF-8 Plain Text
Duration                                 : 1 h 16 min
Bit rate                                 : 56 b/s
Count of elements                        : 896
Stream size                              : 31.5 KiB (0%)
Language                                 : French
Default                                  : No
Forced                                   : No

Text #10
ID                                       : 12
Format                                   : UTF-8
Codec ID                                 : S_TEXT/UTF8
Codec ID/Info                            : UTF-8 Plain Text
Duration                                 : 1 h 16 min
Bit rate                                 : 86 b/s
Count of elements                        : 928
Stream size                              : 48.3 KiB (0%)
Language                                 : Hebrew
Default                                  : No
Forced                                   : No

Text #11
ID                                       : 13
Format                                   : UTF-8
Codec ID                                 : S_TEXT/UTF8
Codec ID/Info                            : UTF-8 Plain Text
Duration                                 : 1 h 16 min
Bit rate                                 : 159 b/s
Count of elements                        : 929
Stream size                              : 89.1 KiB (0%)
Language                                 : Hindi
Default                                  : No
Forced                                   : No

Text #12
ID                                       : 14
Format                                   : UTF-8
Codec ID                                 : S_TEXT/UTF8
Codec ID/Info                            : UTF-8 Plain Text
Duration                                 : 1 h 16 min
Bit rate                                 : 64 b/s
Count of elements                        : 928
Stream size                              : 36.2 KiB (0%)
Language                                 : Indonesian
Default                                  : No
Forced                                   : No

Text #13
ID                                       : 15
Format                                   : UTF-8
Codec ID                                 : S_TEXT/UTF8
Codec ID/Info                            : UTF-8 Plain Text
Duration                                 : 1 h 16 min
Bit rate                                 : 63 b/s
Count of elements                        : 927
Stream size                              : 35.2 KiB (0%)
Language                                 : Italian
Default                                  : No
Forced                                   : No

Text #14
ID                                       : 16
Format                                   : UTF-8
Codec ID                                 : S_TEXT/UTF8
Codec ID/Info                            : UTF-8 Plain Text
Duration                                 : 1 h 20 min
Bit rate                                 : 50 b/s
Count of elements                        : 824
Stream size                              : 29.6 KiB (0%)
Language                                 : Japanese
Default                                  : No
Forced                                   : No

Text #15
ID                                       : 17
Format                                   : UTF-8
Codec ID                                 : S_TEXT/UTF8
Codec ID/Info                            : UTF-8 Plain Text
Duration                                 : 1 h 16 min
Bit rate                                 : 65 b/s
Count of elements                        : 928
Stream size                              : 36.6 KiB (0%)
Language                                 : Korean
Default                                  : No
Forced                                   : No

Text #16
ID                                       : 18
Format                                   : UTF-8
Codec ID                                 : S_TEXT/UTF8
Codec ID/Info                            : UTF-8 Plain Text
Duration                                 : 1 h 16 min
Bit rate                                 : 72 b/s
Count of elements                        : 935
Stream size                              : 40.3 KiB (0%)
Language                                 : Malay
Default                                  : No
Forced                                   : No

Text #17
ID                                       : 19
Format                                   : UTF-8
Codec ID                                 : S_TEXT/UTF8
Codec ID/Info                            : UTF-8 Plain Text
Duration                                 : 1 h 16 min
Bit rate                                 : 56 b/s
Count of elements                        : 879
Stream size                              : 31.5 KiB (0%)
Language                                 : Norwegian Bokmal
Default                                  : No
Forced                                   : No

Text #18
ID                                       : 20
Format                                   : UTF-8
Codec ID                                 : S_TEXT/UTF8
Codec ID/Info                            : UTF-8 Plain Text
Duration                                 : 1 h 16 min
Bit rate                                 : 58 b/s
Count of elements                        : 851
Stream size                              : 32.4 KiB (0%)
Language                                 : Dutch
Default                                  : No
Forced                                   : No

Text #19
ID                                       : 21
Format                                   : UTF-8
Codec ID                                 : S_TEXT/UTF8
Codec ID/Info                            : UTF-8 Plain Text
Duration                                 : 1 h 16 min
Bit rate                                 : 62 b/s
Count of elements                        : 928
Stream size                              : 34.8 KiB (0%)
Language                                 : Polish
Default                                  : No
Forced                                   : No

Text #20
ID                                       : 22
Format                                   : UTF-8
Codec ID                                 : S_TEXT/UTF8
Codec ID/Info                            : UTF-8 Plain Text
Duration                                 : 1 h 16 min
Bit rate                                 : 58 b/s
Count of elements                        : 928
Stream size                              : 32.6 KiB (0%)
Title                                    : Simplified
Language                                 : Chinese
Default                                  : No
Forced                                   : No

Text #21
ID                                       : 23
Format                                   : UTF-8
Codec ID                                 : S_TEXT/UTF8
Codec ID/Info                            : UTF-8 Plain Text
Duration                                 : 1 h 16 min
Bit rate                                 : 55 b/s
Count of elements                        : 928
Stream size                              : 30.8 KiB (0%)
Title                                    : Traditional
Language                                 : Chinese
Default                                  : No
Forced                                   : No

Text #22
ID                                       : 24
Format                                   : UTF-8
Codec ID                                 : S_TEXT/UTF8
Codec ID/Info                            : UTF-8 Plain Text
Duration                                 : 1 h 16 min
Bit rate                                 : 62 b/s
Count of elements                        : 927
Stream size                              : 34.9 KiB (0%)
Title                                    : Brasil
Language                                 : Portuguese
Default                                  : No
Forced                                   : No

Text #23
ID                                       : 25
Format                                   : UTF-8
Codec ID                                 : S_TEXT/UTF8
Codec ID/Info                            : UTF-8 Plain Text
Duration                                 : 1 h 16 min
Bit rate                                 : 63 b/s
Count of elements                        : 927
Stream size                              : 35.2 KiB (0%)
Language                                 : Portuguese
Default                                  : No
Forced                                   : No

Text #24
ID                                       : 26
Format                                   : UTF-8
Codec ID                                 : S_TEXT/UTF8
Codec ID/Info                            : UTF-8 Plain Text
Duration                                 : 1 h 16 min
Bit rate                                 : 96 b/s
Count of elements                        : 927
Stream size                              : 53.8 KiB (0%)
Language                                 : Russian
Default                                  : No
Forced                                   : No

Text #25
ID                                       : 27
Format                                   : UTF-8
Codec ID                                 : S_TEXT/UTF8
Codec ID/Info                            : UTF-8 Plain Text
Duration                                 : 1 h 16 min
Bit rate                                 : 64 b/s
Count of elements                        : 911
Stream size                              : 35.8 KiB (0%)
Language                                 : Swedish
Default                                  : No
Forced                                   : No

Text #26
ID                                       : 28
Format                                   : UTF-8
Codec ID                                 : S_TEXT/UTF8
Codec ID/Info                            : UTF-8 Plain Text
Duration                                 : 1 h 16 min
Bit rate                                 : 201 b/s
Count of elements                        : 928
Stream size                              : 112 KiB (0%)
Language                                 : Tamil
Default                                  : No
Forced                                   : No

Text #27
ID                                       : 29
Format                                   : UTF-8
Codec ID                                 : S_TEXT/UTF8
Codec ID/Info                            : UTF-8 Plain Text
Duration                                 : 1 h 16 min
Bit rate                                 : 167 b/s
Count of elements                        : 928
Stream size                              : 93.2 KiB (0%)
Language                                 : Telugu
Default                                  : No
Forced                                   : No

Text #28
ID                                       : 30
Format                                   : UTF-8
Codec ID                                 : S_TEXT/UTF8
Codec ID/Info                            : UTF-8 Plain Text
Duration                                 : 1 h 16 min
Bit rate                                 : 155 b/s
Count of elements                        : 928
Stream size                              : 86.9 KiB (0%)
Language                                 : Thai
Default                                  : No
Forced                                   : No

Text #29
ID                                       : 31
Format                                   : UTF-8
Codec ID                                 : S_TEXT/UTF8
Codec ID/Info                            : UTF-8 Plain Text
Duration                                 : 1 h 16 min
Bit rate                                 : 61 b/s
Count of elements                        : 928
Stream size                              : 34.3 KiB (0%)
Language                                 : Turkish
Default                                  : No
Forced                                   : No

Menu
00:00:00.000                             : en:Amazon Original
00:00:06.000                             : en:Studio Logo
00:00:41.000                             : en:Fox starts a tape
00:01:48.000                             : en:Keep shooting tapes
00:05:45.000                             :

回复

使用道具 举报

小黑屋|磁力链接吧 |网站地图

本网站所有资源来自网络,如无意中侵犯了您的权益,请发邮件至 [email protected],立即清除相关链接

GMT+8, 2021-2-27 14:41 , Processed in 0.104852 second(s), 20 queries .

Powered by Discuz! X3.2

© 2001-2013 Comsenz Inc.

快速回复 返回顶部 返回列表