磁力链接吧

 找回密码
 立即注册
搜索

[BD-4K] 托尼·克罗斯 Toni.Kroos.2019.GERMAN.ENSUBBED.2160p.AMZN.WEB-DL.x265.8bit.... ...

[复制链接]
百度云资源 发表于 2021-2-19 10:30:08 | 显示全部楼层 |阅读模式
-->
帖子完整标题:托尼·克罗斯 Toni.Kroos.2019.GERMAN.ENSUBBED.2160p.AMZN.WEB-DL.x265.8bit.SDR.DDP5.1-SWTYBLZ 8.27GB


[/url]

◎译  名 托尼·克罗斯/Kroos/克罗斯
◎片  名 Toni Kroos
◎年  代 2019
◎产  地 德国
◎类  别 纪录片
◎语  言 德语,英语,法语,西班牙语
◎上映日期 2019-07-04(德国)
◎IMDb评分  6.7/10 from 791 users
◎  
◎豆瓣评分 8.9/10 from 260 users
◎ 
◎片  长 113分钟
◎主  演 托尼·克罗斯 Toni Kroos
       加雷斯·贝尔 Gareth Bale
       何塞普·瓜迪奥拉 Josep Guardiola
       雅普·海因克斯 Jupp Heynckes
       乌利·赫内斯 Ulrich Hoene?
       米罗斯拉夫·克洛泽 Miroslav Klose
       约阿希姆·勒夫 Joachim L?w
       卢卡·莫德里奇 Luka Modric
       弗洛伦蒂诺·佩雷斯 Florentino Pérez
       塞尔吉奥·拉莫斯 Sergio Ramos
       马蒂亚斯·萨默尔 Matthias Sammer
       罗比·威廉姆斯 Robbie Williams
       齐内丁·齐达内 Zinédine Zidane
       伊德里斯·艾尔巴 Idris Elba
       尤尔根·克林斯曼 Jürgen Klinsmann
       海克·玛卡琪 Heike Makatsch
       巴斯蒂安·施魏因施泰格 Bastian Schweinsteiger
       Marcel Reif
       Elton
       Kai Pflaume
       伊斯科·阿拉尔孔 Isco Alarcón

◎标  签 纪录片 | 德国 | 体育 | 传记 | 皇家马德里 | 托尼克罗斯 | 2019 | 德国纪录片

◎简  介

  皇马主力托尼·克罗斯纪录片[克罗斯](Kroos,暂译)首发预告。影片将追随克罗斯从格赖夫斯瓦尔德到马德里的脚步,从拜仁慕尼黑、勒沃库森到皇家马德里。齐达内、克洛泽、莫德里奇等均出镜畅聊。克洛泽也将回忆2014年世界杯德国夺冠,2016-2018皇马三连冠等高光时刻,也会重现在拜仁、2012年欧联决赛、2018年俄罗斯世界杯等低谷时刻。影片由Manfred Oldenburg执导,将于7月4日德国上映。
Video
ID                                       : 1
Format                                   : HEVC
Format/Info                              : High Efficiency Video Coding
Format profile                           : @Main
Codec ID                                 : V_MPEGH/ISO/HEVC
Duration                                 : 1 h 54 min
Bit rate                                 : 9 717 kb/s
Width                                    : 3 840 pixels
Height                                   : 1 600 pixels
Display aspect ratio                     : 2.40:1
Frame rate mode                          : Constant
Frame rate                               : 25.000 FPS
Standard                                 : NTSC
Color space                              : YUV
Chroma subsampling                       : 4:2:0
Bit depth                                : 8 bits
Bits/(Pixel*Frame)                       : 0.063
Stream size                              : 7.76 GiB (94%)
Writing library                          : x265 2.9_elemental9e0607aa5b6f:[Linux][GCC 4.8.5][64 bit] 8bit+10bit+12bit
Encoding settings                        : cpuid=1111039 / frame-threads=2 / wpp / no-pmode / no-pme / psnr / ssim / log-level=2 / csv / csv-log-level=2 / input-csp=1 / input-res=3840x1600 / interlace=0 / total-frames=0 / level-idc=50 / high-tier=1 / uhd-bd=0 / ref=5 / no-allow-non-conformance / no-repeat-headers / annexb / no-aud / no-hrd / info / hash=0 / no-temporal-layers / no-open-gop / min-keyint=64 / keyint=125 / gop-lookahead=0 / bframes=8 / b-adapt=2 / b-pyramid / bframe-bias=0 / rc-lookahead=125 / lookahead-slices=4 / scenecut=0 / radl=0 / no-intra-refresh / ctu=64 / min-cu-size=8 / rect / amp / max-tu-size=32 / tu-inter-depth=4 / tu-intra-depth=4 / limit-tu=4 / rdoq-level=2 / dynamic-rd=0.00 / no-ssim-rd / signhide / tskip / nr-intra=100 / nr-inter=600 / no-constrained-intra / strong-intra-smoothing / max-merge=3 / limit-refs=3 / limit-modes / me=3 / subme=3 / merange=57 / temporal-mvp / weightp / weightb / no-analyze-src-pics / deblock=0:0 / no-sao / no-sao-non-deblock / rd=4 / no-early-skip / no-rskip / no-fast-intra / tskip-fast / no-cu-lossless / b-intra / no-splitrd-skip / rdpenalty=0 / psy-rd=4.00 / psy-rdoq=10.00 / no-rd-refine / no-lossless / cbqpoffs=0 / crqpoffs=0 / rc=crf / crf=25.0 / qcomp=0.60 / qpstep=1 / stats-write=0 / stats-read=0 / vbv-maxrate=15000 / vbv-bufsize=20000 / vbv-init=0.9 / crf-max=0.0 / crf-min=0.0 / ipratio=1.10 / pbratio=1.00 / aq-mode=0 / aq-strength=1.50 / no-cutree / zone-count=0 / no-strict-cbr / qg-size=32 / rc-grain / qpmax=69 / qpmin=0 / const-vbv / sar=1 / overscan=0 / videoformat=2 / range=0 / colorprim=1 / transfer=1 / colormatrix=1 / chromaloc=0 / display-window=0 / max-cll=0,0 / min-luma=0 / max-luma=255 / log2-max-poc-lsb=8 / vui-timing-info / vui-hrd-info / slices=1 / opt-qp-pps / no-opt-ref-list-length-pps / no-multi-pass-opt-rps / scenecut-bias=0.05 / no-opt-cu-delta-qp / no-aq-motion / no-hdr / no-hdr-opt / no-dhdr10-opt / no-idr-recovery-sei / analysis-reuse-level=5 / scale-factor=0 / refine-intra=0 / refine-inter=0 / refine-mv=0 / no-limit-sao / ctu-info=0 / no-lowpass-dct / refine-mv-type=0 / copy-pic=1 / max-ausize-factor=1.0 / no-dynamic-refine / no-single-sei
Language                                 : German
Default                                  : Yes
Forced                                   : No
Color range                              : Limited
Color primaries                          : BT.709
Transfer characteristics                 : BT.709
Matrix coefficients                      : BT.709

Audio
ID                                       : 2
Format                                   : E-AC-3
Format/Info                              : Enhanced AC-3
Commercial name                          : Dolby Digital Plus
Codec ID                                 : A_EAC3
Duration                                 : 1 h 54 min
Bit rate mode                            : Constant
Bit rate                                 : 640 kb/s
Channel(s)                               : 6 channels
Channel layout                           : L R C LFE Ls Rs
Sampling rate                            : 48.0 kHz
Frame rate                               : 31.250 FPS (1536 SPF)
Compression mode                         : Lossy
Stream size                              : 523 MiB (6%)
Title                                    : DDP 5.1
Language                                 : German
Service kind                             : Complete Main
Default                                  : Yes
Forced                                   : No

Text
ID                                       : 3
Format                                   : UTF-8
Codec ID                                 : S_TEXT/UTF8
Codec ID/Info                            : UTF-8 Plain Text
Duration                                 : 1 h 51 min
Bit rate                                 : 69 b/s
Count of elements                        : 1454
Stream size                              : 56.8 KiB (0%)
Title                                    : SDH
Language                                 : English
Default                                  : No
Forced                                   : No
[/url][/url][/url]



                                                                                                                                                                                                        
                                                                                                                                                                                                                                                                                                                                                                                                                                                                                                                                                                                                                                                                                                                                                                                                                                                        
155a21250ef9860ada95d854317a421f.zip (42.1 KB, 下载次数: 4)

回复

使用道具 举报

小黑屋|磁力链接吧 |网站地图

本网站所有资源来自网络,如无意中侵犯了您的权益,请发邮件至 [email protected],立即清除相关链接

GMT+8, 2021-3-9 01:40 , Processed in 0.114012 second(s), 23 queries .

Powered by Discuz! X3.2

© 2001-2013 Comsenz Inc.

快速回复 返回顶部 返回列表