磁力链接吧

 找回密码
 立即注册
搜索

[4K-原盘] 2012 3D/2012世界末日 2012.2009.2160p.BluRay.REMUX.HEVC.DTS-HD.MA.TrueHD.7...

[复制链接]
百度云资源 发表于 2021-2-3 22:49:32 | 显示全部楼层 |阅读模式
-->
帖子完整标题:2012 3D/2012世界末日 2012.2009.2160p.BluRay.REMUX.HEVC.DTS-HD.MA.TrueHD.7.1.Atmos-FGT 77.01GB


[/url]

◎译  名 2012 3D/2012世界末日/2012地球毁灭/2012末日预言(港)/Farewell Atlantis
◎片  名 2012
◎年  代 2009
◎产  地 美国,加拿大
◎类  别 动作 / 科幻 / 冒险 / 灾难
◎语  言 英语,法语,藏语,汉语普通话,俄语,印地语,葡萄牙语,拉丁语,意大利语
◎上映日期 2009-11-13(中国大陆/美国) / 2012-11-20(中国大陆 3D)
◎IMDb评分  5.8/10 from 353358 users
◎  
◎豆瓣评分 7.9/10 from 477397 users
◎ 
◎片  长 158分钟
◎导  演 罗兰·艾默里奇 Roland Emmerich
◎编  剧 罗兰·艾默里奇 Roland Emmerich / 哈洛德·克卢瑟 Harald Kloser
◎主  演 约翰·库萨克 John Cusack
       阿曼达·皮特 Amanda Peet
       切瓦特·埃加福 Chiwetel Ejiofor
       坦迪·牛顿 Thandie Newton
       奥利弗·普莱特 Oliver Platt
       汤姆·麦卡锡 Tom McCarthy
       伍迪·哈里森 Woody Harrelson
       丹尼·格洛弗 Danny Glover
       连姆·詹姆斯 Liam James
       摩根·莉莉 Morgan Lily
       扎特科·巴瑞克 Zlatko Buric
       毕崔斯·罗森 Beatrice Rosen
       乔翰·厄布 Johann Urb
       约翰·比灵斯列 John Billingsley
       黄经汉 Chin Han
       周逸之 Osric Chau
       张铮 Tseng Chang
       卢燕 Lisa Lu
       布鲁·曼库马 Blu Mankuma
       乔治·席格 George Segal
       帕特里克·波查 Patrick Bauchau
       吉米·米斯特雷 Jimi Mistry
       瑞安·麦克唐纳德 Ryan McDonald
       玛丽莲·江恩 Merrilyn Gann
       区亨利 Henry O
       帕特里克·吉尔莫 Patrick Gilmore
       韦弗·里库克 Viv Leacock
       多隆·贝尔 Doron Bell
       大卫·奥斯 David Orth
       泰·奥尔森 Ty Olsson
       Zinaid Memisevic
       BJ·哈里森 BJ Harrison
       Dominic Zamprogna
       卡琳·考诺娃 Karin Konoval
       Mary Gillis
       郑柏恒 Rick Tae
       Parm Soor
       杰拉德·普伦科特 Gerard Plunkett
       伊芙·哈洛 Eve Harlow
       肖恩·泰森 Sean Tyson
       迈克尔·巴佛 Michael Buffer
       达伦·A·赫伯特 Daren A. Herbert
       朱迪·汤普森 Jody Thompson
       坦娅·钱普 Tanya Champoux
       弗兰克·C·特纳 Frank C. Turner
       拉腊·萨迪克 Laara Sadiq
       吉莲·芭伯 Gillian Barber
       贝薇莉·埃利奥特 Beverley Elliott
       阿加·达什 Agam Darshi
       拉吉·拉尔 Raj Lal
       杰克博·布莱尔 Jacob Blair
       Scott E. Miller
       安娜-梅劳特里奇 Anna Mae Routledge
       艾迪·哈塞尔 Eddie Hassell
       亚历桑德拉·卡斯蒂略 Alexandra Castillo
       李利强 Leo Li Chiang
       杰夫·古斯塔夫森 Geoff Gustafson
       艾力克斯·萨哈拉 Alex Zahara
       杰森·格里菲斯 Jason Griffith
       吉尔·莫里森 Jill Morrison
       姜广涛 Guangtao Jiang
       张杰 Jie Zhang

◎标  签 灾难 | 美国 | 震撼 | 人性 | 2009 | 亲情 | 感动 | 动作

◎简  介

  太阳活动异常,地球内部的能量平衡系统面临崩溃,玛雅人的预言即将实现,人类将遭遇灭顶之灾。各国政府已经联手开始秘密制造方舟,希望能躲过这一浩劫。以写科幻小说谋生的杰克逊(约翰·库萨克 John Cusack 饰)在带孩子们到黄石公园渡周末时发生一连串怪事,而且遇到了神经兮兮的查理(伍迪·哈里森 Woody Harrelson 饰),查理告诉他世界末日即将来临。伴随着火山爆发,强烈地震以及海啸,杰克逊带领自己的家人驾驶一架临时租来的飞机冲出被死神阴霾瞬间笼罩的城市上空,开始寻找查理口中各国政府正在联合秘密制造的方舟。在生死攸关的时刻,一些伟大的鬼魂将脱颖而出,而一些自私的心灵将无所遁形,当千千万万个生灵通过各种方法来到方舟制造基地之时,方舟有限的容纳数量引发前所未有的恐慌。最终,仅存的人们用互爱和对生命的尊重渡过了难关。
  
  本片被称为《后天》的升级版,投资超过2亿美元,是灾难片大师罗兰·艾默里奇(Roland Emmerich)的最新力作。

◎获奖情况

  第14届圣地亚哥影评人协会奖 ?(2009)
  年度劳模 伍迪·哈里森
  
  第12届美国青少年选择奖 ?(2010)
  最佳科幻电影(提名)
  最佳科幻电影男演员(提名) 约翰·库萨克
  最佳科幻电影女演员(提名) 阿曼达·皮特
[quote]Video
ID                                       : 1
ID in the original source medium         : 4113 (0x1011)
Format                                   : HEVC
Format/Info                              : High Efficiency Video Coding
Format profile                           : Main @High
HDR format                               : SMPTE ST 2086, HDR10 compatible
Codec ID                                 : V_MPEGH/ISO/HEVC
Duration                                 : 2 h 37 min
Bit rate                                 : 49.3 Mb/s
Width                                    : 3 840 pixels
Height                                   : 2 160 pixels
Display aspect ratio                     : 16:9
Frame rate mode                          : Constant
Frame rate                               : 23.976 (24000/1001/189150) FPS
Color space                              : YUV
Chroma subsampling                       : 4:2:0 (Type 2)
Bit depth                                : 10 bits
Bits/(Pixel*Frame)                       : 0.248
Stream size                              : 54.4 GiB (71%)
Language                                 : English
Default                                  : No
Forced                                   : No
Color range                              : Limited
Color primaries                          : BT.2020
Transfer characteristics                 : PQ
Matrix coefficients                      : BT.2020 non-constant
Mastering display color primaries        : Display P3
Mastering display luminance              : min: 0.0050 cd/m2, max: 4000 cd/m2
Maximum Content Light Level              : 4451 cd/m2
Maximum Frame-Average Light Level        : 514 cd/m2
Original source medium                   : Blu-ray

Audio #1
ID                                       : 2
ID in the original source medium         : 4352 (0x1100)
Format                                   : MLP FBA 16-ch
Format/Info                              : Meridian Lossless Packing FBA with 16-channel presentation
Commercial name                          : Dolby TrueHD with Dolby Atmos
Codec ID                                 : A_TRUEHD
Duration                                 : 2 h 37 min
Bit rate mode                            : Variable
Bit rate                                 : 4 860 kb/s
Maximum bit rate                         : 7 908 kb/s
Channel(s)                               : 8 channels
Channel layout                           : L R C LFE Ls Rs Lb Rb
Sampling rate                            : 48.0 kHz
Frame rate                               : 1 200.000 FPS (40 SPF)
Compression mode                         : Lossless
Stream size                              : 5.36 GiB (7%)
Title                                    : TrueHD 7.1. Atmos
Language                                 : English
Default                                  : Yes
Forced                                   : No
Original source medium                   : Blu-ray
Number of dynamic objects                : 11
Bed channel count                        : 1 channel
Bed channel configuration                : LFE

Audio #2
ID                                       : 3
Format                                   : DTS XLL
Format/Info                              : Digital Theater Systems
Commercial name                          : DTS-HD Master Audio
Codec ID                                 : A_DTS
Duration                                 : 2 h 37 min
Bit rate mode                            : Variable
Bit rate                                 : 4 589 kb/s
Channel(s)                               : 8 channels
Channel layout                           : C L R LFE Lb Rb Lss Rss
Sampling rate                            : 48.0 kHz
Frame rate                               : 93.750 FPS (512 SPF)
Bit depth                                : 24 bits
Compression mode                         : Lossless
Stream size                              : 5.06 GiB (7%)
Title                                    : DTS-HD MA 7.1
Language                                 : English
Default                                  : No
Forced                                   : No

Audio #3
ID                                       : 4
ID in the original source medium         : 4352 (0x1100)
Format                                   : AC-3
Format/Info                              : Audio Coding 3
Commercial name                          : Dolby Digital
Codec ID                                 : A_AC3
Duration                                 : 2 h 37 min
Bit rate mode                            : Constant
Bit rate                                 : 640 kb/s
Channel(s)                               : 6 channels
Channel layout                           : L R C LFE Ls Rs
Sampling rate                            : 48.0 kHz
Frame rate                               : 31.250 FPS (1536 SPF)
Compression mode                         : Lossy
Stream size                              : 723 MiB (1%)
Title                                    : DD 5.1
Language                                 : English
Service kind                             : Complete Main
Default                                  : No
Forced                                   : No
Original source medium                   : Blu-ray

Audio #4
ID                                       : 5
ID in the original source medium         : 4354 (0x1102)
Format                                   : AC-3
Format/Info                              : Audio Coding 3
Commercial name                          : Dolby Digital
Codec ID                                 : A_AC3
Duration                                 : 2 h 37 min
Bit rate mode                            : Constant
Bit rate                                 : 192 kb/s
Channel(s)                               : 2 channels
Channel layout                           : L R
Sampling rate                            : 48.0 kHz
Frame rate                               : 31.250 FPS (1536 SPF)
Compression mode                         : Lossy
Stream size                              : 217 MiB (0%)
Title                                    : DD 2.0
Language                                 : English
Service kind                             : Complete Main
Default                                  : No
Forced                                   : No
Original source medium                   : Blu-ray

Audio #5
ID                                       : 6
ID in the original source medium         : 4355 (0x1103)
Format                                   : AC-3
Format/Info                              : Audio Coding 3
Commercial name                          : Dolby Digital
Codec ID                                 : A_AC3
Duration                                 : 2 h 37 min
Bit rate mode                            : Constant
Bit rate                                 : 192 kb/s
Channel(s)                               : 2 channels
Channel layout                           : L R
Sampling rate                            : 48.0 kHz
Frame rate                               : 31.250 FPS (1536 SPF)
Compression mode                         : Lossy
Stream size                              : 217 MiB (0%)
Title                                    : DD 2.0
Language                                 : English
Service kind                             : Complete Main
Default                                  : No
Forced                                   : No
Original source medium                   : Blu-ray

Audio #6
ID                                       : 7
ID in the original source medium         : 4356 (0x1104)
Format                                   : AC-3
Format/Info                              : Audio Coding 3
Commercial name                          : Dolby Digital
Codec ID                                 : A_AC3
Duration                                 : 2 h 37 min
Bit rate mode                            : Constant
Bit rate                                 : 640 kb/s
Channel(s)                               : 6 channels
Channel layout                           : L R C LFE Ls Rs
Sampling rate                            : 48.0 kHz
Frame rate                               : 31.250 FPS (1536 SPF)
Compression mode                         : Lossy
Stream size                              : 723 MiB (1%)
Title                                    : DD 5.1
Language                                 : Catalan
Service kind                             : Complete Main
Default                                  : No
Forced                                   : No
Original source medium                   : Blu-ray

Audio #7
ID                                       : 8
ID in the original source medium         : 4357 (0x1105)
Format                                   : AC-3
Format/Info                              : Audio Coding 3
Commercial name                          : Dolby Digital
Codec ID                                 : A_AC3
Duration                                 : 2 h 37 min
Bit rate mode                            : Constant
Bit rate                                 : 640 kb/s
Channel(s)                               : 6 channels
Channel layout                           : L R C LFE Ls Rs
Sampling rate                            : 48.0 kHz
Frame rate                               : 31.250 FPS (1536 SPF)
Compression mode                         : Lossy
Stream size                              : 723 MiB (1%)
Title                                    : DD 5.1
Language                                 : Czech
Service kind                             : Complete Main
Default                                  : No
Forced                                   : No
Original source medium                   : Blu-ray

Audio #8
ID                                       : 9
ID in the original source medium         : 4358 (0x1106)
Format                                   : AC-3
Format/Info                              : Audio Coding 3
Commercial name                          : Dolby Digital
Codec ID                                 : A_AC3
Duration                                 : 2 h 37 min
Bit rate mode                            : Constant
Bit rate                                 : 640 kb/s
Channel(s)                               : 6 channels
Channel layout                           : L R C LFE Ls Rs
Sampling rate                            : 48.0 kHz
Frame rate                               : 31.250 FPS (1536 SPF)
Compression mode                         : Lossy
Stream size                              : 723 MiB (1%)
Title                                    : DD 5.1
Language                                 : French
Service kind                             : Complete Main
Default                                  : No
Forced                                   : No
Original source medium                   : Blu-ray

Audio #9
ID                                       : 10
ID in the original source medium         : 4359 (0x1107)
Format                                   : AC-3
Format/Info                              : Audio Coding 3
Commercial name                          : Dolby Digital
Codec ID                                 : A_AC3
Duration                                 : 2 h 37 min
Bit rate mode                            : Constant
Bit rate                                 : 640 kb/s
Channel(s)                               : 6 channels
Channel layout                           : L R C LFE Ls Rs
Sampling rate                            : 48.0 kHz
Frame rate                               : 31.250 FPS (1536 SPF)
Compression mode                         : Lossy
Stream size                              : 723 MiB (1%)
Title                                    : DD 5.1
Language                                 : French
Service kind                             : Complete Main
Default                                  : No
Forced                                   : No
Original source medium                   : Blu-ray

Audio #10
ID                                       : 11
ID in the original source medium         : 4360 (0x1108)
Format                                   : AC-3
Format/Info                              : Audio Coding 3
Commercial name                          : Dolby Digital
Codec ID                                 : A_AC3
Duration                                 : 2 h 37 min
Bit rate mode                            : Constant
Bit rate                                 : 640 kb/s
Channel(s)                               : 6 channels
Channel layout                           : L R C LFE Ls Rs
Sampling rate                            : 48.0 kHz
Frame rate                               : 31.250 FPS (1536 SPF)
Compression mode                         : Lossy
Stream size                              : 723 MiB (1%)
Title                                    : DD 5.1
Language                                 : German
Service kind                             : Complete Main
Default                                  : No
Forced                                   : No
Original source medium                   : Blu-ray

Audio #11
ID                                       : 12
ID in the original source medium         : 4361 (0x1109)
Format                                   : AC-3
Format/Info                              : Audio Coding 3
Commercial name                          : Dolby Digital
Codec ID                                 : A_AC3
Duration                                 : 2 h 37 min
Bit rate mode                            : Constant
Bit rate                                 : 640 kb/s
Channel(s)                               : 6 channels
Channel layout                           : L R C LFE Ls Rs
Sampling rate                            : 48.0 kHz
Frame rate                               : 31.250 FPS (1536 SPF)
Compression mode                         : Lossy
Stream size                              : 723 MiB (1%)
Title                                    : DD 5.1
Language                                 : Hindi
Service kind                             : Complete Main
Default                                  : No
Forced                                   : No
Original source medium                   : Blu-ray

Audio #12
ID                                       : 13
ID in the original source medium         : 4362 (0x110A)
Format                                   : AC-3
Format/Info                              : Audio Coding 3
Commercial name                          : Dolby Digital
Codec ID                                 : A_AC3
Duration                                 : 2 h 37 min
Bit rate mode                            : Constant
Bit rate                                 : 640 kb/s
Channel(s)                               : 6 channels
Channel layout                           : L R C LFE Ls Rs
Sampling rate                            : 48.0 kHz
Frame rate                               : 31.250 FPS (1536 SPF)
Compression mode                         : Lossy
Stream size                              : 723 MiB (1%)
Title                                    : DD 5.1
Language                                 : Hungarian
Service kind                             : Complete Main
Default                                  : No
Forced                                   : No
Original source medium                   : Blu-ray

Audio #13
ID                                       : 14
ID in the original source medium         : 4363 (0x110B)
Format                                   : AC-3
Format/Info                              : Audio Coding 3
Commercial name                          : Dolby Digital
Codec ID                                 : A_AC3
Duration                                 : 2 h 37 min
Bit rate mode                            : Constant
Bit rate                                 : 640 kb/s
Channel(s)                               : 6 channels
Channel layout                           : L R C LFE Ls Rs
Sampling rate                            : 48.0 kHz
Frame rate                               : 31.250 FPS (1536 SPF)
Compression mode                         : Lossy
Stream size                              : 723 MiB (1%)
Title                                    : DD 5.1
Language                                 : Italian
Service kind                             : Complete Main
Default                                  : No
Forced                                   : No
Original source medium                   : Blu-ray

Audio #14
ID                                       : 15
ID in the original source medium         : 4364 (0x110C)
Format                                   : AC-3
Format/Info                              : Audio Coding 3
Commercial name                          : Dolby Digital
Codec ID                                 : A_AC3
Duration                                 : 2 h 37 min
Bit rate mode                            : Constant
Bit rate                                 : 640 kb/s
Channel(s)                               : 6 channels
Channel layout                           : L R C LFE Ls Rs
Sampling rate                            : 48.0 kHz
Frame rate                               : 31.250 FPS (1536 SPF)
Compression mode                         : Lossy
Stream size                              : 723 MiB (1%)
Title                                    : DD 5.1
Language                                 : Japanese
Service kind                             : Complete Main
Default                                  : No
Forced                                   : No
Original source medium                   : Blu-ray

Audio #15
ID                                       : 16
ID in the original source medium         : 4365 (0x110D)
Format                                   : AC-3
Format/Info                              : Audio Coding 3
Commercial name                          : Dolby Digital
Codec ID                                 : A_AC3
Duration                                 : 2 h 37 min
Bit rate mode                            : Constant
Bit rate                                 : 640 kb/s
Channel(s)                               : 6 channels
Channel layout                           : L R C LFE Ls Rs
Sampling rate                            : 48.0 kHz
Frame rate                               : 31.250 FPS (1536 SPF)
Compression mode                         : Lossy
Stream size                              : 723 MiB (1%)
Title                                    : DD 5.1
Language                                 : Polish
Service kind                             : Complete Main
Default                                  : No
Forced                                   : No
Original source medium                   : Blu-ray

Audio #16
ID                                       : 17
ID in the original source medium         : 4366 (0x110E)
Format                                   : AC-3
Format/Info                              : Audio Coding 3
Commercial name                          : Dolby Digital
Codec ID                                 : A_AC3
Duration                                 : 2 h 37 min
Bit rate mode                            : Constant
Bit rate                                 : 640 kb/s
Channel(s)                               : 6 channels
Channel layout                           : L R C LFE Ls Rs
Sampling rate                            : 48.0 kHz
Frame rate                               : 31.250 FPS (1536 SPF)
Compression mode                         : Lossy
Stream size                              : 723 MiB (1%)
Title                                    : DD 5.1
Language                                 : Portuguese
Service kind                             : Complete Main
Default                                  : No
Forced                                   : No
Original source medium                   : Blu-ray

Audio #17
ID                                       : 18
ID in t

回复

使用道具 举报

小黑屋|磁力链接吧 |网站地图

本网站所有资源来自网络,如无意中侵犯了您的权益,请发邮件至 [email protected],立即清除相关链接

GMT+8, 2021-2-27 14:15 , Processed in 0.099671 second(s), 20 queries .

Powered by Discuz! X3.2

© 2001-2013 Comsenz Inc.

快速回复 返回顶部 返回列表