磁力链接吧

 找回密码
 立即注册
搜索

[BD-4K] 细说从前:Bob Marley 枪击案 Remastered.Who.Shot.the.Sheriff.2018.2160p....

[复制链接]
百度云资源 发表于 2021-2-3 21:24:10 | 显示全部楼层 |阅读模式
-->
帖子完整标题:细说从前:Bob Marley 枪击案 Remastered.Who.Shot.the.Sheriff.2018.2160p.NF.WEB-DL.x265.10bit.SDR.DDP5.1-SWTYBLZ 4.95GB


[/url]

◎译  名 细说从前:Bob Marley 枪击案
◎片  名 Who Shot the Sheriff?
◎年  代 2018
◎产  地 美国
◎类  别 纪录片
◎语  言 英语
◎上映日期 2018-10-12(美国)
◎IMDb评分  6.9/10 from 1045 users
◎  
◎豆瓣评分 /10 from 0 users
◎ 
◎集  数 1
◎片  长 57
◎导  演 基夫·戴维森 Kief Davidson
◎主  演 鲍勃·马利 Bob Marley

◎标  签 纪录片 | 美国 | 音乐 | 紀錄片 | 2018 | 美國 | netflix | 2019觀影

◎简  介

  The violent political suppression of the roots reggae movement in Jamaica told through an investigation into Jamaican politics and the CIA's involvement in the mysterious shooting of Bob Marley.
  
  讲述Reggae音乐巨星 Bob Marley 在为和平举行音乐会/演唱会前后遭受的枪击案
Video
ID                                       : 1
Format                                   : HEVC
Format/Info                              : High Efficiency Video Coding
Format profile                           : Main @Main
Codec ID                                 : V_MPEGH/ISO/HEVC
Duration                                 : 57 min 4 s
Bit rate                                 : 11.8 Mb/s
Width                                    : 3 840 pixels
Height                                   : 2 160 pixels
Display aspect ratio                     : 16:9
Frame rate mode                          : Constant
Frame rate                               : 23.976 (24000/1001/189150) FPS
Color space                              : YUV
Chroma subsampling                       : 4:2:0
Bit depth                                : 10 bits
Bits/(Pixel*Frame)                       : 0.059
Stream size                              : 4.70 GiB (95%)
Default                                  : Yes
Forced                                   : No
Color range                              : Limited
Color primaries                          : BT.709
Transfer characteristics                 : BT.709
Matrix coefficients                      : BT.709

Audio
ID                                       : 2
Format                                   : E-AC-3
Format/Info                              : Enhanced AC-3
Commercial name                          : Dolby Digital Plus
Codec ID                                 : A_EAC3
Duration                                 : 57 min 4 s
Bit rate mode                            : Constant
Bit rate                                 : 640 kb/s
Channel(s)                               : 6 channels
Channel layout                           : L R C LFE Ls Rs
Sampling rate                            : 48.0 kHz
Frame rate                               : 31.250 FPS (1536 SPF)
Compression mode                         : Lossy
Stream size                              : 261 MiB (5%)
Title                                    : DDP 5.1
Language                                 : English
Service kind                             : Complete Main
Default                                  : Yes
Forced                                   : No

Text #1
ID                                       : 3
Format                                   : UTF-8
Codec ID                                 : S_TEXT/UTF8
Codec ID/Info                            : UTF-8 Plain Text
Duration                                 : 52 min 44 s
Bit rate                                 : 18 b/s
Count of elements                        : 222
Stream size                              : 7.03 KiB (0%)
Title                                    : FORCED
Language                                 : English
Default                                  : Yes
Forced                                   : Yes

Text #2
ID                                       : 4
Format                                   : UTF-8
Codec ID                                 : S_TEXT/UTF8
Codec ID/Info                            : UTF-8 Plain Text
Duration                                 : 55 min 38 s
Bit rate                                 : 103 b/s
Count of elements                        : 1098
Stream size                              : 42.3 KiB (0%)
Title                                    : SDH
Language                                 : English
Default                                  : No
Forced                                   : No

Text #3
ID                                       : 5
Format                                   : UTF-8
Codec ID                                 : S_TEXT/UTF8
Codec ID/Info                            : UTF-8 Plain Text
Duration                                 : 55 min 48 s
Bit rate                                 : 89 b/s
Count of elements                        : 1124
Stream size                              : 36.5 KiB (0%)
Language                                 : Danish
Default                                  : No
Forced                                   : No

Text #4
ID                                       : 6
Format                                   : UTF-8
Codec ID                                 : S_TEXT/UTF8
Codec ID/Info                            : UTF-8 Plain Text
Duration                                 : 55 min 49 s
Bit rate                                 : 180 b/s
Count of elements                        : 1140
Stream size                              : 73.7 KiB (0%)
Language                                 : Greek
Default                                  : No
Forced                                   : No

Text #5
ID                                       : 7
Format                                   : UTF-8
Codec ID                                 : S_TEXT/UTF8
Codec ID/Info                            : UTF-8 Plain Text
Duration                                 : 55 min 48 s
Bit rate                                 : 92 b/s
Count of elements                        : 1112
Stream size                              : 37.9 KiB (0%)
Language                                 : Spanish
Default                                  : No
Forced                                   : No

Text #6
ID                                       : 8
Format                                   : UTF-8
Codec ID                                 : S_TEXT/UTF8
Codec ID/Info                            : UTF-8 Plain Text
Duration                                 : 55 min 48 s
Bit rate                                 : 160 b/s
Count of elements                        : 1141
Stream size                              : 65.8 KiB (0%)
Language                                 : Arabic
Default                                  : No
Forced                                   : No

Text #7
ID                                       : 9
Format                                   : UTF-8
Codec ID                                 : S_TEXT/UTF8
Codec ID/Info                            : UTF-8 Plain Text
Duration                                 : 55 min 48 s
Bit rate                                 : 89 b/s
Count of elements                        : 1131
Stream size                              : 36.7 KiB (0%)
Language                                 : Spanish
Default                                  : No
Forced                                   : No

Text #8
ID                                       : 10
Format                                   : UTF-8
Codec ID                                 : S_TEXT/UTF8
Codec ID/Info                            : UTF-8 Plain Text
Duration                                 : 55 min 48 s
Bit rate                                 : 85 b/s
Count of elements                        : 989
Stream size                              : 35.1 KiB (0%)
Language                                 : German
Default                                  : No
Forced                                   : No

Text #9
ID                                       : 11
Format                                   : UTF-8
Codec ID                                 : S_TEXT/UTF8
Codec ID/Info                            : UTF-8 Plain Text
Duration                                 : 55 min 48 s
Bit rate                                 : 85 b/s
Count of elements                        : 1141
Stream size                              : 34.8 KiB (0%)
Language                                 : Finnish
Default                                  : No
Forced                                   : No

Text #10
ID                                       : 12
Format                                   : UTF-8
Codec ID                                 : S_TEXT/UTF8
Codec ID/Info                            : UTF-8 Plain Text
Duration                                 : 55 min 48 s
Bit rate                                 : 102 b/s
Count of elements                        : 1138
Stream size                              : 42.0 KiB (0%)
Language                                 : French
Default                                  : No
Forced                                   : No

Text #11
ID                                       : 13
Format                                   : UTF-8
Codec ID                                 : S_TEXT/UTF8
Codec ID/Info                            : UTF-8 Plain Text
Duration                                 : 55 min 48 s
Bit rate                                 : 92 b/s
Count of elements                        : 1117
Stream size                              : 37.8 KiB (0%)
Language                                 : Italian
Default                                  : No
Forced                                   : No

Text #12
ID                                       : 14
Format                                   : UTF-8
Codec ID                                 : S_TEXT/UTF8
Codec ID/Info                            : UTF-8 Plain Text
Duration                                 : 56 min 50 s
Bit rate                                 : 145 b/s
Count of elements                        : 1106
Stream size                              : 60.8 KiB (0%)
Language                                 : Hebrew
Default                                  : No
Forced                                   : No

Text #13
ID                                       : 15
Format                                   : UTF-8
Codec ID                                 : S_TEXT/UTF8
Codec ID/Info                            : UTF-8 Plain Text
Duration                                 : 55 min 48 s
Bit rate                                 : 84 b/s
Count of elements                        : 896
Stream size                              : 34.7 KiB (0%)
Language                                 : Norwegian Bokmal
Default                                  : No
Forced                                   : No

Text #14
ID                                       : 16
Format                                   : UTF-8
Codec ID                                 : S_TEXT/UTF8
Codec ID/Info                            : UTF-8 Plain Text
Duration                                 : 55 min 49 s
Bit rate                                 : 95 b/s
Count of elements                        : 1139
Stream size                              : 39.1 KiB (0%)
Language                                 : Indonesian
Default                                  : No
Forced                                   : No

Text #15
ID                                       : 17
Format                                   : UTF-8
Codec ID                                 : S_TEXT/UTF8
Codec ID/Info                            : UTF-8 Plain Text
Duration                                 : 56 min 38 s
Bit rate                                 : 101 b/s
Count of elements                        : 1179
Stream size                              : 42.2 KiB (0%)
Language                                 : Japanese
Default                                  : No
Forced                                   : No

Text #16
ID                                       : 18
Format                                   : UTF-8
Codec ID                                 : S_TEXT/UTF8
Codec ID/Info                            : UTF-8 Plain Text
Duration                                 : 55 min 48 s
Bit rate                                 : 108 b/s
Count of elements                        : 1153
Stream size                              : 44.5 KiB (0%)
Language                                 : Korean
Default                                  : No
Forced                                   : No

Text #17
ID                                       : 19
Format                                   : UTF-8
Codec ID                                 : S_TEXT/UTF8
Codec ID/Info                            : UTF-8 Plain Text
Duration                                 : 56 min 39 s
Bit rate                                 : 82 b/s
Count of elements                        : 1088
Stream size                              : 34.1 KiB (0%)
Title                                    : Simplified
Language                                 : Chinese
Default                                  : No
Forced                                   : No

Text #18
ID                                       : 20
Format                                   : UTF-8
Codec ID                                 : S_TEXT/UTF8
Codec ID/Info                            : UTF-8 Plain Text
Duration                                 : 56 min 39 s
Bit rate                                 : 88 b/s
Count of elements                        : 1131
Stream size                              : 36.8 KiB (0%)
Title                                    : Traditional
Language                                 : Chinese
Default                                  : No
Forced                                   : No

Text #19
ID                                       : 21
Format                                   : UTF-8
Codec ID                                 : S_TEXT/UTF8
Codec ID/Info                            : UTF-8 Plain Text
Duration                                 : 56 min 39 s
Bit rate                                 : 95 b/s
Count of elements                        : 1124
Stream size                              : 39.6 KiB (0%)
Title                                    : Brasil
Language                                 : Portuguese
Default                                  : No
Forced                                   : No

Text #20
ID                                       : 22
Format                                   : UTF-8
Codec ID                                 : S_TEXT/UTF8
Codec ID/Info                            : UTF-8 Plain Text
Duration                                 : 55 min 48 s
Bit rate                                 : 92 b/s
Count of elements                        : 1133
Stream size                              : 38.0 KiB (0%)
Language                                 : Portuguese
Default                                  : No
Forced                                   : No

Text #21
ID                                       : 23
Format                                   : UTF-8
Codec ID                                 : S_TEXT/UTF8
Codec ID/Info                            : UTF-8 Plain Text
Duration                                 : 55 min 48 s
Bit rate                                 : 88 b/s
Count of elements                        : 959
Stream size                              : 36.3 KiB (0%)
Language                                 : Dutch
Default                                  : No
Forced                                   : No

Text #22
ID                                       : 24
Format                                   : UTF-8
Codec ID                                 : S_TEXT/UTF8
Codec ID/Info                            : UTF-8 Plain Text
Duration                                 : 56 min 37 s
Bit rate                                 : 92 b/s
Count of elements                        : 1132
Stream size                              : 38.4 KiB (0%)
Language                                 : Polish
Default                                  : No
Forced                                   : No

Text #23
ID                                       : 25
Format                                   : UTF-8
Codec ID                                 : S_TEXT/UTF8
Codec ID/Info                            : UTF-8 Plain Text
Duration                                 : 55 min 48 s
Bit rate                                 : 104 b/s
Count of elements                        : 1101
Stream size                              : 42.6 KiB (0%)
Language                                 : Romanian
Default                                  : No
Forced                                   : No

Text #24
ID                                       : 26
Format                                   : UTF-8
Codec ID                                 : S_TEXT/UTF8
Codec ID/Info                            : UTF-8 Plain Text
Duration                                 : 56 min 39 s
Bit rate                                 : 143 b/s
Count of elements                        : 1139
Stream size                              : 59.5 KiB (0%)
Language                                 : Russian
Default                                  : No
Forced                                   : No

Text #25
ID                                       : 27
Format                                   : UTF-8
Codec ID                                 : S_TEXT/UTF8
Codec ID/Info                            : UTF-8 Plain Text
Duration                                 : 55 min 48 s
Bit rate                                 : 85 b/s
Count of elements                        : 916
Stream size                              : 35.0 KiB (0%)
Language                                 : Swedish
Default                                  : No
Forced                                   : No

Text #26
ID                                       : 28
Format                                   : UTF-8
Codec ID                                 : S_TEXT/UTF8
Codec ID/Info                            : UTF-8 Plain Text
Duration                                 : 55 min 48 s
Bit rate                                 : 245 b/s
Count of elements                        : 1141
Stream size                              : 100 KiB (0%)
Language                                 : Thai
Default                                  : No
Forced                                   : No

Text #27
ID                                       : 29
Format                                   : UTF-8
Codec ID                                 : S_TEXT/UTF8
Codec ID/Info                            : UTF-8 Plain Text
Duration                                 : 55 min 48 s
Bit rate                                 : 87 b/s
Count of elements                        : 1141
Stream size                              : 35.8 KiB (0%)
Language                                 : Turkish
Default                                  : No
Forced                                   : No




                                                                                                                                                                                                        
                                                                                                                                                                                                                                                                                                                                                                                                                                                                                                                                                                                                                                                                                                                                                                                                                                                        
ae0dfb440fc6531cbf4ee090e91efbed.zip (50.29 KB, 下载次数: 12)

回复

使用道具 举报

小黑屋|磁力链接吧 |网站地图

本网站所有资源来自网络,如无意中侵犯了您的权益,请发邮件至 [email protected],立即清除相关链接

GMT+8, 2021-2-27 14:08 , Processed in 1.191208 second(s), 46 queries .

Powered by Discuz! X3.2

© 2001-2013 Comsenz Inc.

快速回复 返回顶部 返回列表