磁力链接吧

 找回密码
 立即注册
搜索

[BD-4K] 观鸟者/候鸟守护者 Birders.2019.SPANISH.2160p.NF.WEB-DL.x265.10bit.SDR...

[复制链接]
百度云资源 发表于 2021-2-1 20:12:21 | 显示全部楼层 |阅读模式
-->
帖子完整标题:观鸟者/候鸟守护者 Birders.2019.SPANISH.2160p.NF.WEB-DL.x265.10bit.SDR.DDP5.1-SWTYBLZ 3.28GB


[/url]

◎译  名 观鸟者/候鸟守护者(台)/观鸟无国界(港)
◎片  名 Birders
◎年  代 2019
◎产  地 美国,墨西哥
◎类  别 纪录片 / 短片
◎语  言 英语,西班牙语
◎上映日期 2019-09-25(美国)
◎IMDb评分  6.4/10 from 196 users
◎  
◎豆瓣评分 /10 from 0 users
◎ 
◎片  长 37分钟
◎导  演 奥蒂利娅·波蒂略·帕杜亚 Otilia Portillo Padua

◎标  签 纪录片 | 美国 | 观鸟 | netflix | 2019 | 短片 | 美国纪录片 | 纪录

◎简  介

  每年,有许多不同种类的候鸟飞行数千英里往返穿越美墨边境,它们并不在意人类制造的各种法律和障碍。两国边境上虔诚的观鸟者,以及所有政治派别的人,对这些生灵和它们的险阻之旅怀有同样的强烈情感。纪录短片《观鸟者》由奥蒂利娅·波蒂略·帕杜亚(《Diario a Tres Voces》)执导。该片赞扬了那些观察、记录、监控并为这些物种的权利和栖息地而战的人们,从另一个角度展示了迁徙这一生存手段。
Video
ID                                       : 1
Format                                   : HEVC
Format/Info                              : High Efficiency Video Coding
Format profile                           : Main @Main
Codec ID                                 : V_MPEGH/ISO/HEVC
Duration                                 : 37 min 46 s
Bit rate                                 : 11.8 Mb/s
Width                                    : 3 840 pixels
Height                                   : 2 160 pixels
Display aspect ratio                     : 16:9
Frame rate mode                          : Constant
Frame rate                               : 23.976 (24000/1001/189150) FPS
Color space                              : YUV
Chroma subsampling                       : 4:2:0
Bit depth                                : 10 bits
Bits/(Pixel*Frame)                       : 0.059
Stream size                              : 3.11 GiB (95%)
Language                                 : Spanish
Default                                  : Yes
Forced                                   : No
Color range                              : Limited
Color primaries                          : BT.709
Transfer characteristics                 : BT.709
Matrix coefficients                      : BT.709

Audio
ID                                       : 2
Format                                   : E-AC-3
Format/Info                              : Enhanced AC-3
Commercial name                          : Dolby Digital Plus
Codec ID                                 : A_EAC3
Duration                                 : 37 min 46 s
Bit rate mode                            : Constant
Bit rate                                 : 640 kb/s
Channel(s)                               : 6 channels
Channel layout                           : L R C LFE Ls Rs
Sampling rate                            : 48.0 kHz
Frame rate                               : 31.250 FPS (1536 SPF)
Compression mode                         : Lossy
Stream size                              : 173 MiB (5%)
Language                                 : Spanish
Service kind                             : Complete Main
Default                                  : Yes
Forced                                   : No

Text #1
ID                                       : 3
Format                                   : UTF-8
Codec ID                                 : S_TEXT/UTF8
Codec ID/Info                            : UTF-8 Plain Text
Duration                                 : 27 min 32 s
Bit rate                                 : 30 b/s
Count of elements                        : 184
Stream size                              : 6.22 KiB (0%)
Language                                 : English
Default                                  : Yes
Forced                                   : No

Text #2
ID                                       : 4
Format                                   : UTF-8
Codec ID                                 : S_TEXT/UTF8
Codec ID/Info                            : UTF-8 Plain Text
Duration                                 : 36 min 7 s
Bit rate                                 : 75 b/s
Count of elements                        : 491
Stream size                              : 19.9 KiB (0%)
Title                                    : SDH
Language                                 : English
Default                                  : No
Forced                                   : No

Text #3
ID                                       : 5
Format                                   : UTF-8
Codec ID                                 : S_TEXT/UTF8
Codec ID/Info                            : UTF-8 Plain Text
Duration                                 : 34 min 43 s
Bit rate                                 : 73 b/s
Count of elements                        : 465
Stream size                              : 18.8 KiB (0%)
Title                                    : SDH
Language                                 : Spanish
Default                                  : No
Forced                                   : No

Text #4
ID                                       : 6
Format                                   : UTF-8
Codec ID                                 : S_TEXT/UTF8
Codec ID/Info                            : UTF-8 Plain Text
Duration                                 : 34 min 35 s
Bit rate                                 : 102 b/s
Count of elements                        : 458
Stream size                              : 26.1 KiB (0%)
Language                                 : Arabic
Default                                  : No
Forced                                   : No

Text #5
ID                                       : 7
Format                                   : UTF-8
Codec ID                                 : S_TEXT/UTF8
Codec ID/Info                            : UTF-8 Plain Text
Duration                                 : 34 min 35 s
Bit rate                                 : 68 b/s
Count of elements                        : 447
Stream size                              : 17.4 KiB (0%)
Language                                 : German
Default                                  : No
Forced                                   : No

Text #6
ID                                       : 8
Format                                   : UTF-8
Codec ID                                 : S_TEXT/UTF8
Codec ID/Info                            : UTF-8 Plain Text
Duration                                 : 34 min 35 s
Bit rate                                 : 117 b/s
Count of elements                        : 455
Stream size                              : 29.7 KiB (0%)
Language                                 : Greek
Default                                  : No
Forced                                   : No

Text #7
ID                                       : 9
Format                                   : UTF-8
Codec ID                                 : S_TEXT/UTF8
Codec ID/Info                            : UTF-8 Plain Text
Duration                                 : 34 min 35 s
Bit rate                                 : 60 b/s
Count of elements                        : 412
Stream size                              : 15.2 KiB (0%)
Language                                 : Finnish
Default                                  : No
Forced                                   : No

Text #8
ID                                       : 10
Format                                   : UTF-8
Codec ID                                 : S_TEXT/UTF8
Codec ID/Info                            : UTF-8 Plain Text
Duration                                 : 30 min 30 s
Bit rate                                 : 50 b/s
Count of elements                        : 277
Stream size                              : 11.2 KiB (0%)
Language                                 : Spanish
Default                                  : No
Forced                                   : No

Text #9
ID                                       : 11
Format                                   : UTF-8
Codec ID                                 : S_TEXT/UTF8
Codec ID/Info                            : UTF-8 Plain Text
Duration                                 : 34 min 35 s
Bit rate                                 : 60 b/s
Count of elements                        : 459
Stream size                              : 15.4 KiB (0%)
Language                                 : Czech
Default                                  : No
Forced                                   : No

Text #10
ID                                       : 12
Format                                   : UTF-8
Codec ID                                 : S_TEXT/UTF8
Codec ID/Info                            : UTF-8 Plain Text
Duration                                 : 34 min 35 s
Bit rate                                 : 62 b/s
Count of elements                        : 443
Stream size                              : 15.9 KiB (0%)
Language                                 : Danish
Default                                  : No
Forced                                   : No

Text #11
ID                                       : 13
Format                                   : UTF-8
Codec ID                                 : S_TEXT/UTF8
Codec ID/Info                            : UTF-8 Plain Text
Duration                                 : 34 min 35 s
Bit rate                                 : 65 b/s
Count of elements                        : 445
Stream size                              : 16.7 KiB (0%)
Language                                 : French
Default                                  : No
Forced                                   : No

Text #12
ID                                       : 14
Format                                   : UTF-8
Codec ID                                 : S_TEXT/UTF8
Codec ID/Info                            : UTF-8 Plain Text
Duration                                 : 34 min 35 s
Bit rate                                 : 100 b/s
Count of elements                        : 440
Stream size                              : 25.5 KiB (0%)
Language                                 : Hebrew
Default                                  : No
Forced                                   : No

Text #13
ID                                       : 15
Format                                   : UTF-8
Codec ID                                 : S_TEXT/UTF8
Codec ID/Info                            : UTF-8 Plain Text
Duration                                 : 34 min 35 s
Bit rate                                 : 68 b/s
Count of elements                        : 437
Stream size                              : 17.4 KiB (0%)
Language                                 : Hungarian
Default                                  : No
Forced                                   : No

Text #14
ID                                       : 16
Format                                   : UTF-8
Codec ID                                 : S_TEXT/UTF8
Codec ID/Info                            : UTF-8 Plain Text
Duration                                 : 34 min 35 s
Bit rate                                 : 59 b/s
Count of elements                        : 441
Stream size                              : 15.0 KiB (0%)
Language                                 : Norwegian Bokmal
Default                                  : No
Forced                                   : No

Text #15
ID                                       : 17
Format                                   : UTF-8
Codec ID                                 : S_TEXT/UTF8
Codec ID/Info                            : UTF-8 Plain Text
Duration                                 : 34 min 35 s
Bit rate                                 : 59 b/s
Count of elements                        : 363
Stream size                              : 15.1 KiB (0%)
Language                                 : Dutch
Default                                  : No
Forced                                   : No

Text #16
ID                                       : 18
Format                                   : UTF-8
Codec ID                                 : S_TEXT/UTF8
Codec ID/Info                            : UTF-8 Plain Text
Duration                                 : 34 min 35 s
Bit rate                                 : 65 b/s
Count of elements                        : 450
Stream size                              : 16.7 KiB (0%)
Language                                 : Indonesian
Default                                  : No
Forced                                   : No

Text #17
ID                                       : 19
Format                                   : UTF-8
Codec ID                                 : S_TEXT/UTF8
Codec ID/Info                            : UTF-8 Plain Text
Duration                                 : 34 min 35 s
Bit rate                                 : 63 b/s
Count of elements                        : 454
Stream size                              : 16.2 KiB (0%)
Language                                 : Italian
Default                                  : No
Forced                                   : No

Text #18
ID                                       : 20
Format                                   : UTF-8
Codec ID                                 : S_TEXT/UTF8
Codec ID/Info                            : UTF-8 Plain Text
Duration                                 : 34 min 35 s
Bit rate                                 : 69 b/s
Count of elements                        : 469
Stream size                              : 17.5 KiB (0%)
Title                                    : Brasil
Language                                 : Portuguese
Default                                  : No
Forced                                   : No

Text #19
ID                                       : 21
Format                                   : UTF-8
Codec ID                                 : S_TEXT/UTF8
Codec ID/Info                            : UTF-8 Plain Text
Duration                                 : 34 min 35 s
Bit rate                                 : 67 b/s
Count of elements                        : 454
Stream size                              : 17.2 KiB (0%)
Language                                 : Portuguese
Default                                  : No
Forced                                   : No

Text #20
ID                                       : 22
Format                                   : UTF-8
Codec ID                                 : S_TEXT/UTF8
Codec ID/Info                            : UTF-8 Plain Text
Duration                                 : 34 min 35 s
Bit rate                                 : 76 b/s
Count of elements                        : 439
Stream size                              : 19.4 KiB (0%)
Language                                 : Japanese
Default                                  : No
Forced                                   : No

Text #21
ID                                       : 23
Format                                   : UTF-8
Codec ID                                 : S_TEXT/UTF8
Codec ID/Info                            : UTF-8 Plain Text
Duration                                 : 34 min 36 s
Bit rate                                 : 114 b/s
Count of elements                        : 461
Stream size                              : 29.0 KiB (0%)
Language                                 : Russian
Default                                  : No
Forced                                   : No

Text #22
ID                                       : 24
Format                                   : UTF-8
Codec ID                                 : S_TEXT/UTF8
Codec ID/Info                            : UTF-8 Plain Text
Duration                                 : 34 min 35 s
Bit rate                                 : 105 b/s
Count of elements                        : 458
Stream size                              : 26.6 KiB (0%)
Language                                 : Vietnamese
Default                                  : No
Forced                                   : No

Text #23
ID                                       : 25
Format                                   : UTF-8
Codec ID                                 : S_TEXT/UTF8
Codec ID/Info                            : UTF-8 Plain Text
Duration                                 : 34 min 35 s
Bit rate                                 : 64 b/s
Count of elements                        : 433
Stream size                              : 16.4 KiB (0%)
Title                                    : Simplified
Language                                 : Chinese
Default                                  : No
Forced                                   : No

Text #24
ID                                       : 26
Format                                   : UTF-8
Codec ID                                 : S_TEXT/UTF8
Codec ID/Info                            : UTF-8 Plain Text
Duration                                 : 34 min 35 s
Bit rate                                 : 58 b/s
Count of elements                        : 461
Stream size                              : 14.9 KiB (0%)
Title                                    : Traditional
Language                                 : Chinese
Default                                  : No
Forced                                   : No

Text #25
ID                                       : 27
Format                                   : UTF-8
Codec ID                                 : S_TEXT/UTF8
Codec ID/Info                            : UTF-8 Plain Text
Duration                                 : 34 min 35 s
Bit rate                                 : 91 b/s
Count of elements                        : 466
Stream size                              : 23.3 KiB (0%)
Language                                 : Korean
Default                                  : No
Forced                                   : No

Text #26
ID                                       : 28
Format                                   : UTF-8
Codec ID                                 : S_TEXT/UTF8
Codec ID/Info                            : UTF-8 Plain Text
Duration                                 : 34 min 35 s
Bit rate                                 : 62 b/s
Count of elements                        : 443
Stream size                              : 16.0 KiB (0%)
Language                                 : Polish
Default                                  : No
Forced                                   : No

Text #27
ID                                       : 29
Format                                   : UTF-8
Codec ID                                 : S_TEXT/UTF8
Codec ID/Info                            : UTF-8 Plain Text
Duration                                 : 34 min 35 s
Bit rate                                 : 70 b/s
Count of elements                        : 447
Stream size                              : 17.9 KiB (0%)
Language                                 : Romanian
Default                                  : No
Forced                                   : No

Text #28
ID                                       : 30
Format                                   : UTF-8
Codec ID                                 : S_TEXT/UTF8
Codec ID/Info                            : UTF-8 Plain Text
Duration                                 : 34 min 35 s
Bit rate                                 : 62 b/s
Count of elements                        : 421
Stream size                              : 15.9 KiB (0%)
Language                                 : Swedish
Default                                  : No
Forced                                   : No

Text #29
ID                                       : 31
Format                                   : UTF-8
Codec ID                                 : S_TEXT/UTF8
Codec ID/Info                            : UTF-8 Plain Text
Duration                                 : 34 min 35 s
Bit rate                                 : 174 b/s
Count of elements                        : 459
Stream size                              : 44.3 KiB (0%)
Language                                 : Thai
Default                                  : No
Forced                                   : No

Text #30
ID                                       : 32
Format                                   : UTF-8
Codec ID                                 : S_TEXT/UTF8
Codec ID/Info                            : UTF-8 Plain Text
Duration                                 : 34 min 35 s
Bit rate                                 : 69 b/s
Count of elements                        : 455
Stream size                              : 17.6 KiB (0%)
Language                                 : Turkish
Default                                  : No
Forced                                   : No

回复

使用道具 举报

小黑屋|磁力链接吧 |网站地图

本网站所有资源来自网络,如无意中侵犯了您的权益,请发邮件至 [email protected],立即清除相关链接

GMT+8, 2021-3-9 02:30 , Processed in 0.086504 second(s), 20 queries .

Powered by Discuz! X3.2

© 2001-2013 Comsenz Inc.

快速回复 返回顶部 返回列表