磁力链接吧

 找回密码
 立即注册
搜索

[BD-4K] 超极限/足球铁粉 Ultras.2020.ITALIAN.2160p.NF.WEB-DL.x265.10bit.SDR.DDP...

[复制链接]
百度云资源 发表于 2021-2-1 20:12:21 | 显示全部楼层 |阅读模式
-->
帖子完整标题:超极限/足球铁粉 Ultras.2020.ITALIAN.2160p.NF.WEB-DL.x265.10bit.SDR.DDP5.1-SWTYBLZ 9.34GB


[/url]

◎译  名 超极限/足球铁粉(台)/铁杆球迷
◎片  名 Ultras
◎年  代 2020
◎产  地 意大利
◎类  别 剧情
◎语  言 意大利语
◎上映日期 2020-03-20(意大利)
◎IMDb评分  5.9/10 from 4116 users
◎  
◎豆瓣评分 5.9/10 from 153 users
◎ 
◎片  长 108分钟
◎导  演 弗朗西斯科·勒提埃里   Francesco Lettieri
◎编  剧 弗朗西斯科·勒提埃里   Francesco Lettieri
◎主  演 阿涅洛·阿雷纳 Aniello Arena

◎标  签 意大利 | 2020 | 足球文化 | 球迷 | 那不勒斯 | 剧情 | ultras | 足球

◎简  介

  一名年迈的足球铁粉正视过去的事实,同时奋力为自己和一位年轻的追随者创造截然不同的未来。
[quote]Video
ID                                       : 1
Format                                   : HEVC
Format/Info                              : High Efficiency Video Coding
Format profile                           : Main @Main
Codec ID                                 : V_MPEGH/ISO/HEVC
Duration                                 : 1 h 49 min
Bit rate                                 : 11.6 Mb/s
Width                                    : 3 840 pixels
Height                                   : 2 160 pixels
Display aspect ratio                     : 16:9
Frame rate mode                          : Constant
Frame rate                               : 25.000 FPS
Color space                              : YUV
Chroma subsampling                       : 4:2:0
Bit depth                                : 10 bits
Bits/(Pixel*Frame)                       : 0.056
Stream size                              : 8.84 GiB (95%)
Default                                  : Yes
Forced                                   : No
Color range                              : Limited
Color primaries                          : BT.709
Transfer characteristics                 : BT.709
Matrix coefficients                      : BT.709

Audio
ID                                       : 2
Format                                   : E-AC-3
Format/Info                              : Enhanced AC-3
Commercial name                          : Dolby Digital Plus
Codec ID                                 : A_EAC3
Duration                                 : 1 h 49 min
Bit rate mode                            : Constant
Bit rate                                 : 640 kb/s
Channel(s)                               : 6 channels
Channel layout                           : L R C LFE Ls Rs
Sampling rate                            : 48.0 kHz
Frame rate                               : 31.250 FPS (1536 SPF)
Compression mode                         : Lossy
Stream size                              : 499 MiB (5%)
Title                                    : DDP 5.1
Language                                 : Italian
Service kind                             : Complete Main
Default                                  : Yes
Forced                                   : No

Text #1
ID                                       : 3
Format                                   : UTF-8
Codec ID                                 : S_TEXT/UTF8
Codec ID/Info                            : UTF-8 Plain Text
Duration                                 : 1 h 47 min
Bit rate                                 : 54 b/s
Count of elements                        : 1435
Stream size                              : 42.8 KiB (0%)
Title                                    : SDH
Language                                 : English
Default                                  : Yes
Forced                                   : Yes

Text #2
ID                                       : 4
Format                                   : UTF-8
Codec ID                                 : S_TEXT/UTF8
Codec ID/Info                            : UTF-8 Plain Text
Duration                                 : 1 h 47 min
Bit rate                                 : 81 b/s
Count of elements                        : 1343
Stream size                              : 63.9 KiB (0%)
Language                                 : Greek
Default                                  : No
Forced                                   : No

Text #3
ID                                       : 5
Format                                   : UTF-8
Codec ID                                 : S_TEXT/UTF8
Codec ID/Info                            : UTF-8 Plain Text
Duration                                 : 1 h 47 min
Bit rate                                 : 46 b/s
Count of elements                        : 1301
Stream size                              : 36.5 KiB (0%)
Language                                 : Danish
Default                                  : No
Forced                                   : No

Text #4
ID                                       : 6
Format                                   : UTF-8
Codec ID                                 : S_TEXT/UTF8
Codec ID/Info                            : UTF-8 Plain Text
Duration                                 : 1 h 47 min
Bit rate                                 : 46 b/s
Count of elements                        : 1340
Stream size                              : 36.4 KiB (0%)
Language                                 : German
Default                                  : No
Forced                                   : No

Text #5
ID                                       : 7
Format                                   : UTF-8
Codec ID                                 : S_TEXT/UTF8
Codec ID/Info                            : UTF-8 Plain Text
Duration                                 : 1 h 41 min
Bit rate                                 : 50 b/s
Count of elements                        : 1291
Stream size                              : 37.4 KiB (0%)
Language                                 : English
Default                                  : No
Forced                                   : No

Text #6
ID                                       : 8
Format                                   : UTF-8
Codec ID                                 : S_TEXT/UTF8
Codec ID/Info                            : UTF-8 Plain Text
Duration                                 : 1 h 47 min
Bit rate                                 : 83 b/s
Count of elements                        : 1347
Stream size                              : 65.6 KiB (0%)
Language                                 : Arabic
Default                                  : No
Forced                                   : No

Text #7
ID                                       : 9
Format                                   : UTF-8
Codec ID                                 : S_TEXT/UTF8
Codec ID/Info                            : UTF-8 Plain Text
Duration                                 : 1 h 47 min
Bit rate                                 : 45 b/s
Count of elements                        : 1344
Stream size                              : 35.8 KiB (0%)
Language                                 : Czech
Default                                  : No
Forced                                   : No

Text #8
ID                                       : 10
Format                                   : UTF-8
Codec ID                                 : S_TEXT/UTF8
Codec ID/Info                            : UTF-8 Plain Text
Duration                                 : 1 h 46 min
Bit rate                                 : 15 b/s
Count of elements                        : 341
Stream size                              : 12.1 KiB (0%)
Title                                    : FORCED
Language                                 : Italian
Default                                  : No
Forced                                   : No

Text #9
ID                                       : 11
Format                                   : UTF-8
Codec ID                                 : S_TEXT/UTF8
Codec ID/Info                            : UTF-8 Plain Text
Duration                                 : 1 h 40 min
Bit rate                                 : 63 b/s
Count of elements                        : 1425
Stream size                              : 46.5 KiB (0%)
Title                                    : SDH
Language                                 : Italian
Default                                  : No
Forced                                   : No

Text #10
ID                                       : 12
Format                                   : UTF-8
Codec ID                                 : S_TEXT/UTF8
Codec ID/Info                            : UTF-8 Plain Text
Duration                                 : 1 h 47 min
Bit rate                                 : 41 b/s
Count of elements                        : 976
Stream size                              : 33.0 KiB (0%)
Language                                 : Finnish
Default                                  : No
Forced                                   : No

Text #11
ID                                       : 13
Format                                   : UTF-8
Codec ID                                 : S_TEXT/UTF8
Codec ID/Info                            : UTF-8 Plain Text
Duration                                 : 1 h 47 min
Bit rate                                 : 44 b/s
Count of elements                        : 1268
Stream size                              : 35.1 KiB (0%)
Language                                 : French
Default                                  : No
Forced                                   : No

Text #12
ID                                       : 14
Format                                   : UTF-8
Codec ID                                 : S_TEXT/UTF8
Codec ID/Info                            : UTF-8 Plain Text
Duration                                 : 1 h 47 min
Bit rate                                 : 47 b/s
Count of elements                        : 1345
Stream size                              : 37.0 KiB (0%)
Language                                 : Hungarian
Default                                  : No
Forced                                   : No

Text #13
ID                                       : 15
Format                                   : UTF-8
Codec ID                                 : S_TEXT/UTF8
Codec ID/Info                            : UTF-8 Plain Text
Duration                                 : 1 h 47 min
Bit rate                                 : 75 b/s
Count of elements                        : 1346
Stream size                              : 59.6 KiB (0%)
Language                                 : Hebrew
Default                                  : No
Forced                                   : No

Text #14
ID                                       : 16
Format                                   : UTF-8
Codec ID                                 : S_TEXT/UTF8
Codec ID/Info                            : UTF-8 Plain Text
Duration                                 : 1 h 47 min
Bit rate                                 : 46 b/s
Count of elements                        : 1346
Stream size                              : 36.2 KiB (0%)
Language                                 : Spanish
Default                                  : No
Forced                                   : No

Text #15
ID                                       : 17
Format                                   : UTF-8
Codec ID                                 : S_TEXT/UTF8
Codec ID/Info                            : UTF-8 Plain Text
Duration                                 : 1 h 47 min
Bit rate                                 : 48 b/s
Count of elements                        : 1343
Stream size                              : 37.9 KiB (0%)
Language                                 : Indonesian
Default                                  : No
Forced                                   : No

Text #16
ID                                       : 18
Format                                   : UTF-8
Codec ID                                 : S_TEXT/UTF8
Codec ID/Info                            : UTF-8 Plain Text
Duration                                 : 1 h 47 min
Bit rate                                 : 47 b/s
Count of elements                        : 1335
Stream size                              : 37.0 KiB (0%)
Language                                 : Spanish
Default                                  : No
Forced                                   : No

Text #17
ID                                       : 19
Format                                   : UTF-8
Codec ID                                 : S_TEXT/UTF8
Codec ID/Info                            : UTF-8 Plain Text
Duration                                 : 1 h 47 min
Bit rate                                 : 46 b/s
Count of elements                        : 1428
Stream size                              : 36.8 KiB (0%)
Language                                 : Japanese
Default                                  : No
Forced                                   : No

Text #18
ID                                       : 20
Format                                   : UTF-8
Codec ID                                 : S_TEXT/UTF8
Codec ID/Info                            : UTF-8 Plain Text
Duration                                 : 1 h 47 min
Bit rate                                 : 60 b/s
Count of elements                        : 1347
Stream size                              : 47.8 KiB (0%)
Language                                 : Korean
Default                                  : No
Forced                                   : No

Text #19
ID                                       : 21
Format                                   : UTF-8
Codec ID                                 : S_TEXT/UTF8
Codec ID/Info                            : UTF-8 Plain Text
Duration                                 : 1 h 47 min
Bit rate                                 : 40 b/s
Count of elements                        : 1334
Stream size                              : 31.9 KiB (0%)
Language                                 : Norwegian Bokmal
Default                                  : No
Forced                                   : No

Text #20
ID                                       : 22
Format                                   : UTF-8
Codec ID                                 : S_TEXT/UTF8
Codec ID/Info                            : UTF-8 Plain Text
Duration                                 : 1 h 47 min
Bit rate                                 : 54 b/s
Count of elements                        : 1347
Stream size                              : 43.0 KiB (0%)
Title                                    : Simplified
Language                                 : Chinese
Default                                  : No
Forced                                   : No

Text #21
ID                                       : 23
Format                                   : UTF-8
Codec ID                                 : S_TEXT/UTF8
Codec ID/Info                            : UTF-8 Plain Text
Duration                                 : 1 h 47 min
Bit rate                                 : 51 b/s
Count of elements                        : 1347
Stream size                              : 40.2 KiB (0%)
Title                                    : Traditional
Language                                 : Chinese
Default                                  : No
Forced                                   : No

Text #22
ID                                       : 24
Format                                   : UTF-8
Codec ID                                 : S_TEXT/UTF8
Codec ID/Info                            : UTF-8 Plain Text
Duration                                 : 1 h 47 min
Bit rate                                 : 43 b/s
Count of elements                        : 1122
Stream size                              : 34.4 KiB (0%)
Language                                 : Dutch
Default                                  : No
Forced                                   : No

Text #23
ID                                       : 25
Format                                   : UTF-8
Codec ID                                 : S_TEXT/UTF8
Codec ID/Info                            : UTF-8 Plain Text
Duration                                 : 1 h 47 min
Bit rate                                 : 48 b/s
Count of elements                        : 1346
Stream size                              : 38.2 KiB (0%)
Language                                 : Polish
Default                                  : No
Forced                                   : No

Text #24
ID                                       : 26
Format                                   : UTF-8
Codec ID                                 : S_TEXT/UTF8
Codec ID/Info                            : UTF-8 Plain Text
Duration                                 : 1 h 47 min
Bit rate                                 : 56 b/s
Count of elements                        : 1346
Stream size                              : 44.7 KiB (0%)
Language                                 : Romanian
Default                                  : No
Forced                                   : No

Text #25
ID                                       : 27
Format                                   : UTF-8
Codec ID                                 : S_TEXT/UTF8
Codec ID/Info                            : UTF-8 Plain Text
Duration                                 : 1 h 47 min
Bit rate                                 : 43 b/s
Count of elements                        : 1292
Stream size                              : 34.6 KiB (0%)
Language                                 : Swedish
Default                                  : No
Forced                                   : No

Text #26
ID                                       : 28
Format                                   : UTF-8
Codec ID                                 : S_TEXT/UTF8
Codec ID/Info                            : UTF-8 Plain Text
Duration                                 : 1 h 47 min
Bit rate                                 : 44 b/s
Count of elements                        : 1344
Stream size                              : 35.2 KiB (0%)
Title                                    : Brasil
Language                                 : Portuguese
Default                                  : No
Forced                                   : No

Text #27
ID                                       : 29
Format                                   : UTF-8
Codec ID                                 : S_TEXT/UTF8
Codec ID/Info                            : UTF-8 Plain Text
Duration                                 : 1 h 47 min
Bit rate                                 : 45 b/s
Count of elements                        : 1337
Stream size                              : 35.5 KiB (0%)
Language                                 : Portuguese
Default                                  : No
Forced                                   : No

Text #28
ID                                       : 30
Format                                   : UTF-8
Codec ID                                 : S_TEXT/UTF8
Codec ID/Info                            : UTF-8 Plain Text
Duration                                 : 1 h 47 min
Bit rate                                 : 75 b/s
Count of elements                        : 1347
Stream size                              : 59.7 KiB (0%)
Language                                 : Russian
Default                                  : No
Forced                                   : No

Text #29
ID                                       : 31
Format                                   : UTF-8
Codec ID                                 : S_TEXT/UTF8
Codec ID/Info                            : UTF-8 Plain Text
Duration                                 : 1 h 47 min
Bit rate                                 : 119 b/s
Count of elements                        : 1347
Stream size                              : 93.7 KiB (0%)
Language                                 : Thai
Default                                  : No
Forced                                   : No

Text #30
ID                                       : 32
Format                                   : UTF-8
Codec ID                                 : S_TEXT/UTF8
Codec ID/Info                            : UTF-8 Plain Text
Duration                                 : 1 h 47 min
Bit rate                                 : 46 b/s
Count of elements                        : 1345
Stream size                              : 36.8 KiB (0%)
Language                                 : Turkish
Default                                  : No
Forced                                   : No

Text #31
ID                                       : 33
Format                                   : UTF-8
Codec ID                                 : S_TEXT/UTF8
Codec ID/Info                            : UTF-8 Plain Text
Duration

回复

使用道具 举报

小黑屋|磁力链接吧 |网站地图

本网站所有资源来自网络,如无意中侵犯了您的权益,请发邮件至 [email protected],立即清除相关链接

GMT+8, 2021-3-9 02:50 , Processed in 0.116033 second(s), 20 queries .

Powered by Discuz! X3.2

© 2001-2013 Comsenz Inc.

快速回复 返回顶部 返回列表