磁力链接吧

 找回密码
 立即注册
搜索

[BD-4K] 蛛丝马迹/小东西 The.Little.Things.2021.REPACK.HDR.2160p.WEB.H265-NAISU...

[复制链接]
百度云资源 发表于 2021-1-29 22:44:07 | 显示全部楼层 |阅读模式
-->
帖子完整标题:蛛丝马迹/小东西 The.Little.Things.2021.REPACK.HDR.2160p.WEB.H265-NAISU 16.71GB


[/url]

◎译  名 蛛丝马迹/小东西/小事/小细节/细物警探(台)
◎片  名 The Little Things
◎年  代 2021
◎产  地 美国
◎类  别 惊悚
◎语  言 英语
◎上映日期 2021-01-29(美国)
◎IMDb评分  7.6/10 from 355 users
◎  
◎豆瓣评分 /10 from 0 users
◎ 
◎片  长 127分钟
◎导  演 约翰·李·汉考克 John Lee Hancock
◎编  剧 约翰·李·汉考克 John Lee Hancock
◎主  演 丹泽尔·华盛顿 Denzel Washington
       杰瑞德·莱托 Jared Leto
       拉米·马雷克 Rami Malek
       苏菲亚·威希涅瓦 Sofia Vassilieva
       娜塔丽·莫瑞丝 Natalie Morales
       汤姆·休斯 Tom Hughes
       克里斯·鲍尔 Chris Bauer
       特里·金尼 Terry Kinney
       杰森·詹姆斯·里希特 Jason James Richter
       斯蒂芬妮·埃尔布 Stephanie Erb
       亚当·哈林顿 Adam Harrington
       凯莉·奥马利 Kerry O'Malley
       约翰·哈伦·金 John Harlan Kim
       乔利斯·贾斯基 Joris Jarsky
       迪米特·D·马里诺夫 Dimiter D. Marinov
       萨曼莎·科尔米耶 Samantha Cormier
       J.唐宁 J. Downing
       托马斯·克劳福德 Thomas Crawford
       杰夫·科贝特 Jeff Corbett
       埃姆利·贝赫什蒂 Emil Beheshti
       杰克·托帕利安 Jack Topalian
       汉克·诺思罗普 Hank Northrop
       伊莎贝尔·阿雷扎 Isabel Arraiza
       迈克尔·凯悦  Michael Hyatt

◎标  签 丹泽尔·华盛顿 | 犯罪 | 惊悚 | 美国 | 2021 | 杰拉德·莱托 | 拉米·马雷克 | 美国电影

◎简  介

  丹泽尔·华盛顿商谈主演华纳打造警察题材惊悚影片[小细节](Little Things,暂译),约翰·李·汉考克([弱点])操刀剧本并有望执导。丹泽尔有望饰演克恩郡治安官德克,他与洛杉矶县警长部门的侦探巴克斯特一起侦破一桩狡猾的连环杀手案。德克对“小细节”有着灵敏又准确的洞察,但他摒弃规则的意愿使巴克斯特陷入了困境。
Video
ID                                       : 1
Format                                   : HEVC
Format/Info                              : High Efficiency Video Coding
Format profile                           : Main @Main
Codec ID                                 : V_MPEGH/ISO/HEVC
Duration                                 : 2 h 7 min
Bit rate                                 : 17.5 Mb/s
Width                                    : 3 840 pixels
Height                                   : 2 160 pixels
Display aspect ratio                     : 16:9
Frame rate mode                          : Constant
Frame rate                               : 23.976 (24000/1001/189150) FPS
Color space                              : YUV
Chroma subsampling                       : 4:2:0
Bit depth                                : 10 bits
Bits/(Pixel*Frame)                       : 0.088
Stream size                              : 15.6 GiB (94%)
Writing library                          : x265 3.4hy:[Linux][GCC 7.5.0][64 bit] 10bit
Encoding settings                        : cpuid=1111039 / frame-threads=1 / wpp / no-pmode / no-pme / no-psnr / no-ssim / log-level=2 / input-csp=1 / input-res=3840x2160 / interlace=0 / total-frames=0 / level-idc=0 / high-tier=1 / uhd-bd=0 / ref=4 / no-allow-non-conformance / repeat-headers / annexb / no-aud / no-hrd / info / hash=0 / no-temporal-layers / no-open-gop / min-keyint=96 / keyint=96 / gop-lookahead=0 / bframes=3 / b-adapt=2 / b-pyramid / bframe-bias=0 / rc-lookahead=25 / lookahead-slices=4 / scenecut=40 / hist-scenecut=0 / radl=0 / no-splice / no-intra-refresh / ctu=64 / min-cu-size=8 / rect / no-amp / max-tu-size=32 / tu-inter-depth=1 / tu-intra-depth=1 / limit-tu=0 / rdoq-level=2 / dynamic-rd=0.00 / no-ssim-rd / signhide / no-tskip / nr-intra=0 / nr-inter=0 / no-constrained-intra / strong-intra-smoothing / max-merge=3 / limit-refs=3 / limit-modes / me=3 / subme=3 / merange=57 / temporal-mvp / no-frame-dup / no-hme / weightp / no-weightb / no-analyze-src-pics / deblock=0:0 / sao / no-sao-non-deblock / rd=4 / selective-sao=4 / no-early-skip / rskip / no-fast-intra / no-tskip-fast / no-cu-lossless / no-b-intra / no-splitrd-skip / rdpenalty=0 / psy-rd=2.00 / psy-rdoq=1.00 / no-rd-refine / no-lossless / cbqpoffs=0 / crqpoffs=0 / rc=abr / bitrate=18000 / qcomp=0.60 / qpstep=4 / stats-write=0 / stats-read=2 / cplxblur=20.0 / qblur=0.5 / vbv-maxrate=24500 / vbv-bufsize=24500 / vbv-init=0.6 / vbv-end=0.6 / vbv-end-fr-adj=0.0 / ipratio=1.40 / pbratio=1.30 / aq-mode=2 / aq-strength=1.00 / cutree / zone-count=0 / no-strict-cbr / qg-size=32 / no-rc-grain / qpmax=69 / qpmin=0 / no-const-vbv / sar=0 / overscan=0 / videoformat=5 / range=0 / colorprim=9 / transfer=16 / colormatrix=9 / chromaloc=0 / display-window=0 / master-display=R(34000,16000)G(13250,34500)B(7500,3000)WP(15635,16450)L(10000000,1) / cll=601,86 / min-luma=0 / max-luma=1023 / log2-max-poc-lsb=8 / vui-timing-info / vui-hrd-info / no-concatenation / slices=1 / no-opt-qp-pps / no-opt-ref-list-length-pps / no-multi-pass-opt-rps / scenecut-bias=0.05 / hist-threshold=0.01 / no-opt-cu-delta-qp / no-aq-motion / hdr10 / no-hdr10-opt / no-dhdr10-opt / no-idr-recovery-sei / analysis-reuse-level=0 / analysis-save-reuse-level=0 / analysis-load-reuse-level=0 / scale-factor=0 / refine-intra=0 / refine-inter=0 / refine-mv=1 / refine-ctu-distortion=0 / no-limit-sao / ctu-info=0 / no-lowpass-dct / refine-analysis-type=0 / copy-pic=1 / max-ausize-factor=1.0 / no-dynamic-refine / no-single-sei / no-hevc-aq / no-svt / no-field / qp-adaptation-range=1.00 / no-scenecut-aware-qpconformance-window-offsets / right=0 / bottom=0 / decoder-max-rate=0
Default                                  : Yes
Forced                                   : No
Color range                              : Limited
Color primaries                          : BT.2020
Transfer characteristics                 : PQ
Matrix coefficients                      : BT.2020 non-constant
Maximum Content Light Level              : 601 cd/m2
Maximum Frame-Average Light Level        : 86 cd/m2

Audio
ID                                       : 2
Format                                   : E-AC-3 JOC
Format/Info                              : Enhanced AC-3 with Joint Object Coding
Commercial name                          : Dolby Digital Plus with Dolby Atmos
Codec ID                                 : A_EAC3
Duration                                 : 2 h 7 min
Bit rate mode                            : Constant
Bit rate                                 : 768 kb/s
Channel(s)                               : 6 channels
Channel layout                           : L R C LFE Ls Rs
Sampling rate                            : 48.0 kHz
Frame rate                               : 31.250 FPS (1536 SPF)
Compression mode                         : Lossy
Stream size                              : 702 MiB (4%)
Language                                 : English
Service kind                             : Complete Main
Default                                  : Yes
Forced                                   : No
Complexity index                         : 16
Number of dynamic objects                : 15
Bed channel count                        : 1 channel
Bed channel configuration                : LFE

Text #1
ID                                       : 3
Format                                   : UTF-8
Codec ID                                 : S_TEXT/UTF8
Codec ID/Info                            : UTF-8 Plain Text
Title                                    : English
Language                                 : English
Default                                  : No
Forced                                   : No

Text #2
ID                                       : 4
Format                                   : UTF-8
Codec ID                                 : S_TEXT/UTF8
Codec ID/Info                            : UTF-8 Plain Text
Title                                    : Latin America Spanish
Language                                 : Spanish
Default                                  : No
Forced                                   : No




                                                                                                                                                                                                        
                                                                                                                                                                                                                                                                                                                                                                                                                                                                                                                                                                                                                                                                                                                                                                                                                                                        
7692d2ccb755b59a9ea0612aa4c6ff33.zip (84.29 KB, 下载次数: 8)

回复

使用道具 举报

小黑屋|磁力链接吧 |网站地图

本网站所有资源来自网络,如无意中侵犯了您的权益,请发邮件至 [email protected],立即清除相关链接

GMT+8, 2021-2-27 14:53 , Processed in 0.143173 second(s), 23 queries .

Powered by Discuz! X3.2

© 2001-2013 Comsenz Inc.

快速回复 返回顶部 返回列表