磁力链接吧

 找回密码
 立即注册
搜索

[4K-原盘] 阿斯泰里克斯:魔法药水的秘密 Asterix.The.Secret.of.the.Magic.Poti...

[复制链接]
百度云资源 发表于 2021-1-26 20:36:52 | 显示全部楼层 |阅读模式
-->
帖子完整标题:阿斯泰里克斯:魔法药水的秘密 Asterix.The.Secret.of.the.Magic.Potion.2018.FRENCH.2160p.BluRay.REMUX.HEVC.DTS-HD.MA.5.1-FGT 42.95GB




◎译  名 阿斯泰里克斯:魔法药水的秘密/Asterix - The Secret of the Magic Potion
◎片  名 Astérix: Le secret de la potion magique
◎年  代 2018
◎产  地 法国
◎类  别 动画
◎语  言 法语,拉丁语 Latin
◎上映日期 2018-12-05(法国)
◎IMDb评分  6.7/10 from 8099 users
◎  
◎豆瓣评分 7.0/10 from 249 users
◎ 
◎片  长 85分钟
◎导  演 亚历山德拉·阿斯提耶尔 Alexandre Astier / Louis Clichy
◎编  剧 亚历山德拉·阿斯提耶尔 Alexandre Astier / 勒内·戈西尼 René Goscinny

◎标  签 动画 | 法国 | 喜剧 | 法国动画 | 法国电影 | 搞笑 | 2018 | asterix

◎简  介

  Following a fall during mistletoe picking, Druid Panoramix decides that it is time to secure the future of the village. Accompanied by Asterix and Obelix, he undertakes to travel the Gallic world in search of a talented young druid to transmit the Secret of the Magic Potion .
  
  —Hugo Van Herpe

◎获奖情况

  第44届法国凯撒电影奖 ?(2019)
  最佳动画片(提名)
Video
ID                                       : 1
ID in the original source medium         : 4113 (0x1011)
Format                                   : HEVC
Format/Info                              : High Efficiency Video Coding
Format profile                           : Main @High
HDR format                               : SMPTE ST 2086, HDR10 compatible
Codec ID                                 : V_MPEGH/ISO/HEVC
Duration                                 : 1 h 24 min
Bit rate                                 : 65.0 Mb/s
Width                                    : 3 840 pixels
Height                                   : 2 160 pixels
Display aspect ratio                     : 16:9
Frame rate mode                          : Constant
Frame rate                               : 24.000 FPS
Color space                              : YUV
Chroma subsampling                       : 4:2:0 (Type 2)
Bit depth                                : 10 bits
Bits/(Pixel*Frame)                       : 0.326
Stream size                              : 38.6 GiB (90%)
Writing library                          : ATEME Titan File 3.8.18 (4.8.18.2)      
Language                                 : English
Default                                  : No
Forced                                   : No
Color range                              : Limited
Color primaries                          : BT.2020
Transfer characteristics                 : PQ
Matrix coefficients                      : BT.2020 non-constant
Mastering display color primaries        : Display P3
Mastering display luminance              : min: 0.0050 cd/m2, max: 1000 cd/m2
Maximum Content Light Level              : 435 cd/m2
Maximum Frame-Average Light Level        : 290 cd/m2
Original source medium                   : Blu-ray

Audio #1
ID                                       : 2
ID in the original source medium         : 4353 (0x1101)
Format                                   : DTS XLL
Format/Info                              : Digital Theater Systems
Commercial name                          : DTS-HD Master Audio
Codec ID                                 : A_DTS
Duration                                 : 1 h 24 min
Bit rate mode                            : Variable
Bit rate                                 : 3 901 kb/s
Channel(s)                               : 6 channels
Channel layout                           : C L R Ls Rs LFE
Sampling rate                            : 48.0 kHz
Frame rate                               : 93.750 FPS (512 SPF)
Bit depth                                : 24 bits
Compression mode                         : Lossless
Stream size                              : 2.31 GiB (5%)
Title                                    : DTS-HD MA 5.1
Language                                 : French
Default                                  : Yes
Forced                                   : No
Original source medium                   : Blu-ray

Audio #2
ID                                       : 3
Format                                   : AC-3
Format/Info                              : Audio Coding 3
Commercial name                          : Dolby Digital
Codec ID                                 : A_AC3
Duration                                 : 1 h 24 min
Bit rate mode                            : Constant
Bit rate                                 : 640 kb/s
Channel(s)                               : 6 channels
Channel layout                           : L R C LFE Ls Rs
Sampling rate                            : 48.0 kHz
Frame rate                               : 31.250 FPS (1536 SPF)
Compression mode                         : Lossy
Stream size                              : 389 MiB (1%)
Title                                    : DD 5.1
Language                                 : French
Service kind                             : Complete Main
Default                                  : No
Forced                                   : No

Audio #3
ID                                       : 4
ID in the original source medium         : 4352 (0x1100)
Format                                   : DTS XLL
Format/Info                              : Digital Theater Systems
Commercial name                          : DTS-HD Master Audio
Codec ID                                 : A_DTS
Duration                                 : 1 h 24 min
Bit rate mode                            : Variable
Bit rate                                 : 2 088 kb/s
Channel(s)                               : 2 channels
Channel layout                           : L R
Sampling rate                            : 48.0 kHz
Frame rate                               : 93.750 FPS (512 SPF)
Bit depth                                : 24 bits
Compression mode                         : Lossless
Stream size                              : 1.24 GiB (3%)
Title                                    : DTS-HD MA 2.0
Language                                 : French
Default                                  : No
Forced                                   : No
Original source medium                   : Blu-ray

Audio #4
ID                                       : 5
ID in the original source medium         : 4354 (0x1102)
Format                                   : DTS
Format/Info                              : Digital Theater Systems
Codec ID                                 : A_DTS
Duration                                 : 1 h 24 min
Bit rate mode                            : Constant
Bit rate                                 : 768 kb/s
Channel(s)                               : 2 channels
Channel layout                           : L R
Sampling rate                            : 48.0 kHz
Frame rate                               : 93.750 FPS (512 SPF)
Bit depth                                : 24 bits
Compression mode                         : Lossy
Stream size                              : 466 MiB (1%)
Title                                    : DTS 2.0
Language                                 : French
Default                                  : No
Forced                                   : No
Original source medium                   : Blu-ray

Text #1
ID                                       : 6
Format                                   : UTF-8
Codec ID                                 : S_TEXT/UTF8
Codec ID/Info                            : UTF-8 Plain Text
Duration                                 : 1 h 19 min
Bit rate                                 : 75 b/s
Count of elements                        : 1107
Stream size                              : 44.3 KiB (0%)
Title                                    : English-SRT
Language                                 : English
Default                                  : Yes
Forced                                   : Yes

Text #2
ID                                       : 7
Format                                   : UTF-8
Codec ID                                 : S_TEXT/UTF8
Codec ID/Info                            : UTF-8 Plain Text
Duration                                 : 1 h 22 min
Bit rate                                 : 82 b/s
Count of elements                        : 1333
Stream size                              : 49.9 KiB (0%)
Title                                    : English-SDH-SRT
Language                                 : English
Default                                  : No
Forced                                   : No

Text #3
ID                                       : 8
ID in the original source medium         : 4768 (0x12A0)
Format                                   : PGS
Muxing mode                              : zlib
Codec ID                                 : S_HDMV/PGS
Codec ID/Info                            : Picture based subtitle format used on BDs/HD-DVDs
Duration                                 : 1 h 24 min
Bit rate                                 : 41.0 kb/s
Count of elements                        : 3232
Stream size                              : 24.8 MiB (0%)
Title                                    : French-PGS
Language                                 : French
Default                                  : No
Forced                                   : No
Original source medium                   : Blu-ray

Menu
00:00:00.000                             : en:Chapter 01
00:06:16.041                             : en:Chapter 02
00:15:42.875                             : en:Chapter 03
00:21:45.000                             : en:Chapter 04
00:28:47.791                             : en:Chapter 05
00:35:00.000                             : en:Chapter 06
00:42:39.458                             : en:Chapter 07
00:50:30.333                             : en:Chapter 08
00:57:33.708                             : en:Chapter 09
01:04:05.458                             : en:Chapter 10
01:13:31.750                             : en:Chapter 11
01:21:07.625                             : en:Chapter 12




                                                                                                                                                                                                        
                                                                                                                                                                                                                                                                                                                                                                                                                                                                                                                                                                                                                                                                                                                                                                                                                                                        
442b8669d5e0af487bfd2901689763a1.zip (108.16 KB, 下载次数: 5)

回复

使用道具 举报

小黑屋|磁力链接吧 |网站地图

本网站所有资源来自网络,如无意中侵犯了您的权益,请发邮件至 [email protected],立即清除相关链接

GMT+8, 2021-3-9 03:11 , Processed in 0.127090 second(s), 23 queries .

Powered by Discuz! X3.2

© 2001-2013 Comsenz Inc.

快速回复 返回顶部 返回列表