磁力链接吧

 找回密码
 立即注册
搜索

[BD-4K] 外国佬 Gringo.2018.2160p.AMZN.WEB-DL.x265.10bit.HDR10plus.DTS-HD.MA.5.1-SW...

[复制链接]
百度云资源 发表于 2021-1-26 00:40:12 | 显示全部楼层 |阅读模式
-->
帖子完整标题:外国佬 Gringo.2018.2160p.AMZN.WEB-DL.x265.10bit.HDR10plus.DTS-HD.MA.5.1-SWTYBLZ 14.63GB




◎译  名 外国佬/American Express/美国运通/老板好坏(台)/边个出差咁黑仔?(港)
◎片  名 Gringo
◎年  代 2018
◎产  地 美国,澳大利亚
◎类  别 喜剧 / 动作 / 犯罪
◎语  言 英语,西班牙语,法语
◎上映日期 2018-03-09(美国)
◎IMDb评分  6.1/10 from 26808 users
◎  
◎豆瓣评分 5.9/10 from 1671 users
◎ 
◎片  长 111分钟
◎导  演 纳许·埃哲顿 Nash Edgerton
◎编  剧 安东尼·塔姆巴基斯 Anthony Tambakis / 马修·斯通 Matthew Stone
◎主  演 乔尔·埃哲顿 Joel Edgerton
       查理兹·塞隆 Charlize Theron
       大卫·奥伊罗 David Oyelowo
       阿曼达·塞弗里德 Amanda Seyfried
       坦迪·牛顿 Thandie Newton
       迭戈·卡塔诺 Diego Cata?o
       卡洛斯·科罗纳 Carlos Corona
       巴希尔·萨拉赫丁 Bashir Salahuddin
       格伦·久保田 Glenn Kubota
       梅罗妮·迪亚兹 Melonie Diaz
       哈里·崔德威 Harry Treadaway
       西奥·泰普里兹 Theo Taplitz
       帕丽斯·杰克逊 Paris Jackson
       尤尔·瓦斯克斯 Yul Vazquez
       埃尔南·门多萨 Hernán Mendoza
       赫克托·科特思法基斯 Hector Kotsifakis
       里卡多·埃斯克拉 Ricardo Esquerra
       阿兰·卢克 Alan Ruck
       肯尼斯·崔 Kenneth Choi
       沙尔托·科普雷 Sharlto Copley

◎标  签 喜剧 | 美国 | 犯罪 | 2018 | 黑色幽默 | 动作 | 剧情 | R级

◎简  介

  亚马逊工作室近日宣布,公司将接手查理兹·塞隆主演、纳什·埃哲顿执导的独立新作《美国运通》(American Express,暂译)。并已招揽了大卫·奥伊罗、阿曼达·塞弗里德、乔尔·埃哲顿等演员加盟本片。亚马逊方面预计本片将于明年年初正式开拍。
Video
ID                                       : 1
Format                                   : HEVC
Format/Info                              : High Efficiency Video Coding
Format profile                           : Main @Main
HDR format                               : SMPTE ST 2094 App 4, Version 0, HDR10 compatible
Codec ID                                 : V_MPEGH/ISO/HEVC
Duration                                 : 1 h 50 min
Bit rate                                 : 14.8 Mb/s
Width                                    : 3 840 pixels
Height                                   : 1 600 pixels
Display aspect ratio                     : 2.40:1
Frame rate mode                          : Constant
Frame rate                               : 23.976 (24000/1001/189150) FPS
Standard                                 : NTSC
Color space                              : YUV
Chroma subsampling                       : 4:2:0 (Type 2)
Bit depth                                : 10 bits
Bits/(Pixel*Frame)                       : 0.101
Stream size                              : 11.5 GiB (78%)
Default                                  : Yes
Forced                                   : No
Color range                              : Limited
Color primaries                          : BT.2020
Transfer characteristics                 : PQ
Matrix coefficients                      : BT.2020 non-constant
Mastering display color primaries        : Display P3
Mastering display luminance              : min: 0.0001 cd/m2, max: 1000 cd/m2
Maximum Content Light Level              : 324 cd/m2
Maximum Frame-Average Light Level        : 97 cd/m2

Audio #1
ID                                       : 2
Format                                   : DTS XLL
Format/Info                              : Digital Theater Systems
Commercial name                          : DTS-HD Master Audio
Codec ID                                 : A_DTS
Duration                                 : 1 h 50 min
Bit rate mode                            : Variable
Bit rate                                 : 3 450 kb/s
Channel(s)                               : 6 channels
Channel layout                           : C L R Ls Rs LFE
Sampling rate                            : 48.0 kHz
Frame rate                               : 93.750 FPS (512 SPF)
Bit depth                                : 24 bits
Compression mode                         : Lossless
Delay relative to video                  : 3 ms
Stream size                              : 2.67 GiB (18%)
Title                                    : DTS-HD MA 5.1
Language                                 : English
Default                                  : Yes
Forced                                   : No

Audio #2
ID                                       : 3
Format                                   : E-AC-3
Format/Info                              : Enhanced AC-3
Commercial name                          : Dolby Digital Plus
Codec ID                                 : A_EAC3
Duration                                 : 1 h 50 min
Bit rate mode                            : Constant
Bit rate                                 : 640 kb/s
Channel(s)                               : 6 channels
Channel layout                           : L R C LFE Ls Rs
Sampling rate                            : 48.0 kHz
Frame rate                               : 31.250 FPS (1536 SPF)
Compression mode                         : Lossy
Stream size                              : 506 MiB (3%)
Title                                    : DDP 5.1
Language                                 : English
Service kind                             : Complete Main
Default                                  : No
Forced                                   : No

Text
ID                                       : 4
Format                                   : UTF-8
Codec ID                                 : S_TEXT/UTF8
Codec ID/Info                            : UTF-8 Plain Text
Duration                                 : 1 h 49 min
Bit rate                                 : 64 b/s
Count of elements                        : 1896
Stream size                              : 51.9 KiB (0%)
Title                                    : English-SRT
Language                                 : English
Default                                  : Yes
Forced                                   : No

Menu
00:00:00.000                             : en:Amazon Studios
00:00:20.000                             : en:Studio Logos
00:00:58.000                             : en:Kidnap job
00:02:23.000                             : en:Harold hears a rumor
00:08:36.000                             : en:Nelly sweetens a deal for Miles
00:11:10.000                             : en:Harold starts to suspect something is wrong
00:14:48.000                             : en:Everyone arrives in Mexico
00:16:15.000                             : en:Richard puts his foot down
00:19:42.000                             : en:Harold eavesdrops on a conversation
00:23:30.000                             : en:More bad news
00:26:10.000                             : en:Sanchez goes to see the boss
00:29:59.000                             : en:Harold decides to take some time for himself
00:34:12.000                             : en:Harold puts his plan into action
00:41:58.000                             : en:Elaine gets Richard's head back in the game
00:46:20.000                             : en:Harold drinks his problems away
00:47:46.000                             : en:Elaine asserts her dominance
00:54:02.000                             : en:Harold makes new friends
00:57:11.000                             : en:Angel gets closer to finding Harold
01:04:37.000                             : en:Sunny and Harold get to know one another
01:08:38.000                             : en:Mitch and Harold go to the airport
01:11:35.000                             : en:Harold starts to wake up
01:16:20.000                             : en:Richard and Elaine find new angles
01:20:37.000                             : en:Time to celebrate
01:25:53.000                             : en:The Gonzalez brothers turn their prize in
01:29:49.000                             : en:Harold is taken back to the plant
01:38:35.000                             : en:Richard eats his carrots
01:43:28.000                             : en:Closing Credits
01:45:33.000                             : en:End Credits




                                                                                                                                                                                                        
                                                                                                                                                                                                                                                                                                                                                                                                                                                                                                                                                                                                                                                                                                                                                                                                                                                        
4630e2d2a82600e3aabd0b5577a2bf5c.zip (73.86 KB, 下载次数: 14)

回复

使用道具 举报

小黑屋|磁力链接吧 |网站地图

本网站所有资源来自网络,如无意中侵犯了您的权益,请发邮件至 [email protected],立即清除相关链接

GMT+8, 2021-3-9 02:38 , Processed in 0.127652 second(s), 23 queries .

Powered by Discuz! X3.2

© 2001-2013 Comsenz Inc.

快速回复 返回顶部 返回列表