磁力链接吧

 找回密码
 立即注册
搜索

[BD-4K] 狼嚎 The.Wolfs.Call.2019.FRENCH.2160p.BluRay.x264.8bit.SDR.DTS-HD.MA.TrueHD...

[复制链接]
百度云资源 发表于 2021-1-26 00:40:12 | 显示全部楼层 |阅读模式
-->
帖子完整标题:狼嚎 The.Wolfs.Call.2019.FRENCH.2160p.BluRay.x264.8bit.SDR.DTS-HD.MA.TrueHD.7.1.Atmos-SWTYBLZ 33.39GB




◎译  名 狼嚎/The Song of the Wolf/The Wolf's Call/潜航核战(港)/潜舰追缉(台)/狼之歌
◎片  名 Le Chant du loup
◎年  代 2019
◎产  地 法国
◎类  别 战争 / 灾难
◎语  言 法语
◎上映日期 2019-02-20(法国)
◎IMDb评分  6.9/10 from 13093 users
◎  
◎豆瓣评分 7.2/10 from 9366 users
◎ 
◎片  长 116分钟
◎导  演 Antonin Baudry
◎编  剧 Antonin Baudry
◎主  演 弗朗索瓦·西维尔 Fran?ois Civil
       奥玛·希 Omar Sy
       马修·卡索维茨 Mathieu Kassovitz
       勒达·卡代布 Reda Kateb
       葆拉·贝尔 Paula Beer
       亚力克西斯·马沙利克 Alexis·Michalik
       让-伊夫·贝特鲁 Jean-Yves Berteloot
       达米安·勃纳尔 Damien Bonnard

◎标  签 战争 | 潜艇 | 法国 | 军事 | 2019 | 灾难 | 剧情 | 科幻

◎简  介

  一个年轻人有一种罕见的礼物,可以识别他听到的每一个声音。在一艘法国核潜艇上,一切都依赖于他,金耳朵。
  
  看上去绝对可靠,他犯了一个错误,让船员处于死亡的危险之中。他希望重新获得同志的信任,但他的追求会让他们陷入更加戏剧化的境地。
  
  在核威慑和错误信息的世界中,他们发现自己被困在一个无法控制的装备中。

◎获奖情况

  第45届法国凯撒电影奖 ?(2020)
  最佳处女作(提名) AntoninBaudry
  最佳音效
  最佳布景(提名)
Video
ID                                       : 1
Format                                   : AVC
Format/Info                              : Advanced Video Codec
Format profile                           :
Format settings                          : CABAC / 5 Ref Frames
Format settings, CABAC                   : Yes
Format settings, Reference frames        : 5 frames
Codec ID                                 : V_MPEG4/ISO/AVC
Duration                                 : 1 h 55 min
Bit rate                                 : 32.6 Mb/s
Width                                    : 3 840 pixels
Height                                   : 1 608 pixels
Display aspect ratio                     : 2.40:1
Frame rate mode                          : Constant
Frame rate                               : 23.976 (24000/1001/189150) FPS
Color space                              : YUV
Chroma subsampling                       : 4:2:0
Bit depth                                : 8 bits
Scan type                                : Progressive
Bits/(Pixel*Frame)                       : 0.220
Stream size                              : 26.4 GiB (79%)
Writing library                          : x264 core 157 r2935 545de2f
Encoding settings                        : cabac=1 / ref=5 / deblock=1:-1:-1 / analyse=0x3:0x113 / me=umh / subme=10 / psy=1 / psy_rd=1.00:0.15 / mixed_ref=1 / me_range=48 / chroma_me=1 / trellis=2 / 8x8dct=1 / cqm=0 / deadzone=21,11 / fast_pskip=1 / chroma_qp_offset=-3 / threads=48 / lookahead_threads=4 / sliced_threads=0 / nr=0 / decimate=0 / interlaced=0 / bluray_compat=0 / constrained_intra=0 / bframes=3 / b_pyramid=2 / b_adapt=2 / b_bias=0 / direct=3 / weightb=1 / open_gop=0 / weightp=2 / keyint=250 / keyint_min=23 / scenecut=40 / intra_refresh=0 / rc_lookahead=50 / rc=crf / mbtree=1 / crf=18.0 / qcomp=0.60 / qpmin=0 / qpmax=69 / qpstep=4 / ip_ratio=1.40 / aq=1:1.00
Default                                  : Yes
Forced                                   : No

Audio #1
ID                                       : 2
ID in the original source medium         : 4352 (0x1100)
Format                                   : MLP FBA 16-ch
Format/Info                              : Meridian Lossless Packing FBA with 16-channel presentation
Commercial name                          : Dolby TrueHD with Dolby Atmos
Codec ID                                 : A_TRUEHD
Duration                                 : 1 h 55 min
Bit rate mode                            : Variable
Bit rate                                 : 3 635 kb/s
Maximum bit rate                         : 5 967 kb/s
Channel(s)                               : 8 channels
Channel layout                           : L R C LFE Ls Rs Lb Rb
Sampling rate                            : 48.0 kHz
Frame rate                               : 1 200.000 FPS (40 SPF)
Compression mode                         : Lossless
Stream size                              : 2.94 GiB (9%)
Title                                    : TrueHD 7.1 Atmos
Language                                 : French
Default                                  : Yes
Forced                                   : No
Original source medium                   : Blu-ray
Number of dynamic objects                : 11
Bed channel count                        : 1 channel
Bed channel configuration                : LFE

Audio #2
ID                                       : 3
Format                                   : DTS XLL
Format/Info                              : Digital Theater Systems
Commercial name                          : DTS-HD Master Audio
Codec ID                                 : A_DTS
Duration                                 : 1 h 55 min
Bit rate mode                            : Variable
Bit rate                                 : 4 095 kb/s
Channel(s)                               : 8 channels
Channel layout                           : C L R LFE Lb Rb Lss Rss
Sampling rate                            : 48.0 kHz
Frame rate                               : 93.750 FPS (512 SPF)
Bit depth                                : 24 bits
Compression mode                         : Lossless
Stream size                              : 3.32 GiB (10%)
Title                                    : DTS-HD MA 7.1
Language                                 : French
Default                                  : No
Forced                                   : No

Audio #3
ID                                       : 4
ID in the original source medium         : 4352 (0x1100)
Format                                   : AC-3
Format/Info                              : Audio Coding 3
Commercial name                          : Dolby Digital
Codec ID                                 : A_AC3
Duration                                 : 1 h 55 min
Bit rate mode                            : Constant
Bit rate                                 : 640 kb/s
Channel(s)                               : 6 channels
Channel layout                           : L R C LFE Ls Rs
Sampling rate                            : 48.0 kHz
Frame rate                               : 31.250 FPS (1536 SPF)
Compression mode                         : Lossy
Stream size                              : 531 MiB (2%)
Title                                    : DD 5.1
Language                                 : French
Service kind                             : Complete Main
Default                                  : No
Forced                                   : No
Original source medium                   : Blu-ray

Text #1
ID                                       : 5
Format                                   : UTF-8
Codec ID                                 : S_TEXT/UTF8
Codec ID/Info                            : UTF-8 Plain Text
Duration                                 : 1 h 54 min
Bit rate                                 : 37 b/s
Count of elements                        : 1167
Stream size                              : 31.3 KiB (0%)
Title                                    : English-SRT
Language                                 : English
Default                                  : Yes
Forced                                   : No

Text #2
ID                                       : 6
ID in the original source medium         : 4768 (0x12A0)
Format                                   : PGS
Muxing mode                              : zlib
Codec ID                                 : S_HDMV/PGS
Codec ID/Info                            : Picture based subtitle format used on BDs/HD-DVDs
Duration                                 : 1 h 54 min
Bit rate                                 : 30.8 kb/s
Count of elements                        : 3258
Stream size                              : 25.3 MiB (0%)
Title                                    : French-PGS
Language                                 : French
Default                                  : No
Forced                                   : No
Original source medium                   : Blu-ray

Menu
00:00:00.000                             : en:Chapter 01
00:12:02.096                             : en:Chapter 02
00:22:57.250                             : en:Chapter 03
00:32:05.048                             : en:Chapter 04
00:40:23.796                             : en:Chapter 05
00:51:37.552                             : en:Chapter 06
01:01:48.955                             : en:Chapter 07
01:12:54.620                             : en:Chapter 08
01:19:20.797                             : en:Chapter 09
01:28:48.906                             : en:Chapter 10
01:39:49.525                             : en:Chapter 11
01:49:54.421                             : en:Chapter 12
01:55:45.271                             : en:Chapter 13




                                                                                                                                                                                                        
                                                                                                                                                                                                                                                                                                                                                                                                                                                                                                                                                                                                                                                                                                                                                                                                                                                        
ee8deceb3c77f43904a5b18d1487bb9c.zip (84.29 KB, 下载次数: 16)

回复

使用道具 举报

小黑屋|磁力链接吧 |网站地图

本网站所有资源来自网络,如无意中侵犯了您的权益,请发邮件至 [email protected],立即清除相关链接

GMT+8, 2021-3-9 02:00 , Processed in 0.110878 second(s), 23 queries .

Powered by Discuz! X3.2

© 2001-2013 Comsenz Inc.

快速回复 返回顶部 返回列表