磁力链接吧

 找回密码
 立即注册
搜索

[BD-4K] 森林恶鬼 The.Wretched.2019.2160p.BluRay.x264.8bit.SDR.DTS-HD.MA.5.1-SWTYB...

[复制链接]
百度云资源 发表于 2021-1-22 20:41:06 | 显示全部楼层 |阅读模式
-->
帖子完整标题:森林恶鬼 The.Wretched.2019.2160p.BluRay.x264.8bit.SDR.DTS-HD.MA.5.1-SWTYBLZ 33.34GB




◎译  名 森林恶鬼/Hag/凶邻(港)/皮行者
◎片  名 The Wretched
◎年  代 2019
◎产  地 美国
◎类  别 恐怖
◎语  言 英语
◎上映日期 2019-07-19(加拿大奇幻电影节) / 2020-05-01(美国)
◎IMDb评分  5.8/10 from 10331 users
◎  
◎豆瓣评分 5.9/10 from 2789 users
◎ 
◎片  长 95分钟
◎导  演 布雷特·皮尔斯 Brett Pierce   / 德鲁·T·皮尔斯 Drew T. Pierce
◎编  剧 布雷特·皮尔斯 Brett Pierce   / 德鲁·T·皮尔斯 Drew T. Pierce / 安迪·鲍尔斯 Andy Bowles
◎主  演 约翰-保罗·霍华德 John-Paul Howard
       佩珀·柯达 Piper Curda
       贾米森·琼斯 Jamison Jones
       阿兹·泰思费 Azie Tesfai
       扎拉·马勒 Zarah Mahler
       凯文·比格利 Kevin Bigley
       理查德·伊利斯 Richard Ellis
       塔格·库克尔 Tug Coker
       帕米拉·格雷 Pamela Gray

◎标  签 恐怖 | 惊悚 | 美国 | 悬疑 | 血腥 | 美国电影 | 食人 | 2020

◎简  介

  一个挑衅的十几岁的男孩,与父母即将离婚的挣扎,面对一个千岁的女巫,谁是生活在皮肤下,并冒充隔壁的女人。
Video
ID                                       : 1
Format                                   : AVC
Format/Info                              : Advanced Video Codec
Format profile                           :
Format settings                          : CABAC / 5 Ref Frames
Format settings, CABAC                   : Yes
Format settings, Reference frames        : 5 frames
Codec ID                                 : V_MPEG4/ISO/AVC
Duration                                 : 1 h 35 min
Bit rate                                 : 45.3 Mb/s
Width                                    : 3 840 pixels
Height                                   : 1 608 pixels
Display aspect ratio                     : 2.40:1
Frame rate mode                          : Constant
Frame rate                               : 24.000 FPS
Color space                              : YUV
Chroma subsampling                       : 4:2:0
Bit depth                                : 8 bits
Scan type                                : Progressive
Bits/(Pixel*Frame)                       : 0.306
Stream size                              : 30.2 GiB (91%)
Writing library                          : x264 core 157 r2935 545de2f
Encoding settings                        : cabac=1 / ref=5 / deblock=1:-1:-1 / analyse=0x3:0x113 / me=umh / subme=10 / psy=1 / psy_rd=1.00:0.15 / mixed_ref=1 / me_range=48 / chroma_me=1 / trellis=2 / 8x8dct=1 / cqm=0 / deadzone=21,11 / fast_pskip=1 / chroma_qp_offset=-3 / threads=48 / lookahead_threads=4 / sliced_threads=0 / nr=0 / decimate=0 / interlaced=0 / bluray_compat=0 / constrained_intra=0 / bframes=3 / b_pyramid=2 / b_adapt=2 / b_bias=0 / direct=3 / weightb=1 / open_gop=0 / weightp=2 / keyint=250 / keyint_min=24 / scenecut=40 / intra_refresh=0 / rc_lookahead=50 / rc=crf / mbtree=1 / crf=18.0 / qcomp=0.60 / qpmin=0 / qpmax=69 / qpstep=4 / ip_ratio=1.40 / aq=1:1.00
Default                                  : Yes
Forced                                   : No

Audio #1
ID                                       : 2
ID in the original source medium         : 4353 (0x1101)
Format                                   : DTS XLL
Format/Info                              : Digital Theater Systems
Commercial name                          : DTS-HD Master Audio
Codec ID                                 : A_DTS
Duration                                 : 1 h 35 min
Bit rate mode                            : Variable
Bit rate                                 : 3 738 kb/s
Channel(s)                               : 6 channels
Channel layout                           : C L R Ls Rs LFE
Sampling rate                            : 48.0 kHz
Frame rate                               : 93.750 FPS (512 SPF)
Bit depth                                : 24 bits
Compression mode                         : Lossless
Stream size                              : 2.49 GiB (8%)
Title                                    : DTS-HD MA 5.1
Language                                 : English
Default                                  : Yes
Forced                                   : No
Original source medium                   : Blu-ray

Audio #2
ID                                       : 3
Format                                   : AC-3
Format/Info                              : Audio Coding 3
Commercial name                          : Dolby Digital
Codec ID                                 : A_AC3
Duration                                 : 1 h 35 min
Bit rate mode                            : Constant
Bit rate                                 : 640 kb/s
Channel(s)                               : 6 channels
Channel layout                           : L R C LFE Ls Rs
Sampling rate                            : 48.0 kHz
Frame rate                               : 31.250 FPS (1536 SPF)
Compression mode                         : Lossy
Stream size                              : 436 MiB (1%)
Title                                    : DD 5.1
Language                                 : English
Service kind                             : Complete Main
Default                                  : No
Forced                                   : No

Text #1
ID                                       : 4
Format                                   : UTF-8
Codec ID                                 : S_TEXT/UTF8
Codec ID/Info                            : UTF-8 Plain Text
Duration                                 : 1 h 30 min
Bit rate                                 : 34 b/s
Count of elements                        : 867
Stream size                              : 23.1 KiB (0%)
Title                                    : English-SRT
Language                                 : English
Default                                  : Yes
Forced                                   : No

Text #2
ID                                       : 5
ID in the original source medium         : 4608 (0x1200)
Format                                   : PGS
Muxing mode                              : zlib
Codec ID                                 : S_HDMV/PGS
Codec ID/Info                            : Picture based subtitle format used on BDs/HD-DVDs
Duration                                 : 1 h 17 min
Bit rate                                 : 232 b/s
Count of elements                        : 18
Stream size                              : 132 KiB (0%)
Title                                    : German-PGS
Language                                 : German
Default                                  : No
Forced                                   : No
Original source medium                   : Blu-ray

Menu
00:00:00.000                             : de:Chapter 01
00:09:02.791                             : de:Chapter 02
00:16:43.875                             : de:Chapter 03
00:23:56.208                             : de:Chapter 04
00:36:03.125                             : de:Chapter 05
00:43:51.416                             : de:Chapter 06
00:52:48.875                             : de:Chapter 07
01:02:22.250                             : de:Chapter 08
01:07:35.708                             : de:Chapter 09
01:17:04.916                             : de:Chapter 10
01:23:30.416                             : de:Chapter 11
01:30:40.500                             : de:Chapter 12




                                                                                                                                                                                                        
                                                                                                                                                                                                                                                                                                                                                                                                                                                                                                                                                                                                                                                                                                                                                                                                                                                        
fcb3a78b1539e093aa8fc199a87309aa.zip (84.09 KB, 下载次数: 2)

回复

使用道具 举报

小黑屋|磁力链接吧 |网站地图

本网站所有资源来自网络,如无意中侵犯了您的权益,请发邮件至 [email protected],立即清除相关链接

GMT+8, 2021-2-27 15:25 , Processed in 0.111445 second(s), 23 queries .

Powered by Discuz! X3.2

© 2001-2013 Comsenz Inc.

快速回复 返回顶部 返回列表