磁力链接吧

 找回密码
 立即注册
搜索

[BD-4K] 世界新闻/结叛同行 News.of.the.World.2020.2160p.AMZN.WEB-DL.x265.10bit...

[复制链接]
百度云资源 发表于 2021-1-21 11:23:08 | 显示全部楼层 |阅读模式
-->
帖子完整标题:世界新闻/结叛同行 News.of.the.World.2020.2160p.AMZN.WEB-DL.x265.10bit.HDR10plus.DDP5.1-SWTYBLZ 12.73GB




◎译  名 世界新闻/结叛同行(港)/读报人(台)
◎片  名 News of the World
◎年  代 2020
◎产  地 美国
◎类  别 剧情 / 动作 / 西部 / 冒险
◎语  言 英语
◎上映日期 2020-12-25(美国)
◎IMDb评分  6.9/10 from 6102 users
◎  
◎豆瓣评分 7.0/10 from 665 users
◎ 
◎片  长 118分钟
◎导  演 保罗·格林格拉斯 Paul Greengrass
◎编  剧 保罗·格林格拉斯 Paul Greengrass / 卢克·戴维斯 Luke Davies / 波莱特·吉尔斯 Paulette Jiles
◎主  演 汤姆·汉克斯 Tom Hanks
       海伦娜·泽格尔 Helena Zengel
       伊丽莎白·玛维尔 Elizabeth Marvel
       雷·迈克金农 Ray McKinnon
       梅尔·温宁汉姆 Mare Winningham
       尼尔·桑迪兰兹 Neil Sandilands
       楚克武迪·武吉 Chukwudi Iwuji
       托马斯·弗兰西斯·墨菲 Thomas Francis Murphy
       米歇尔·坎贝尔 Michelle Campbell
       弗莱德·赫钦格 Fred Hechinger
       迈克尔·安盖洛·科维诺 Michael Angelo Covino
       斯塔福德·道格拉斯 Stafford Douglas
       J·内森·西蒙斯 J. Nathan Simmons
       斯蒂芬妮·希尔 Stephanie Hill
       布兰登·韦德纳 Brenden Wedner
       汤姆·阿斯特 Tom Astor
       安迪·卡斯特利奇 Andy Kastelic
       克林特·奥本钦 Clint Obenchain

◎标  签 美国 | 剧情 | 2020 | 西部 | 小说改编 | 西部片 | 动作 | 改编

◎简  介

  美国内战结束后五年,三场战争的退伍军官杰佛森凯尔基得上尉(汤姆·汉克斯 饰),现在以读报人的身份从一个小镇到另一个小镇,和当地居民分享世界各地的精彩新闻。他在德州的平原遇到乔韩娜(海伦娜·泽格尔 饰),一 个六年前被凯奥瓦印第安人掳走并被收养的十岁女孩。乔韩娜对她未曾体验过的世界充满敌意,而且被迫被送回她的阿姨和姨丈身边。基得上尉答应护送这女孩回到她依照法律应该属于的地方。他们必须在环境严苛的野外跋山涉水好几百英哩,而且这两人在寻找一个他们都可以称为家园的地方时,将面对来自人类和大自然的巨大挑战。
  
  该片根据波莱特·吉尔斯同名小说改编。

◎获奖情况

  第33届芝加哥影评人协会奖 ?(2020)
  最具潜力演员(提名) 海伦娜·泽格尔
Video
ID                                       : 1
Format                                   : HEVC
Format/Info                              : High Efficiency Video Coding
Format profile                           : Main @Main
HDR format                               : SMPTE ST 2094 App 4, Version 1, HDR10+ Profile B compatible
Codec ID                                 : V_MPEGH/ISO/HEVC
Duration                                 : 1 h 58 min
Bit rate                                 : 14.8 Mb/s
Width                                    : 3 840 pixels
Height                                   : 1 600 pixels
Display aspect ratio                     : 2.40:1
Frame rate mode                          : Constant
Frame rate                               : 23.976 (24000/1001/189150) FPS
Color space                              : YUV
Chroma subsampling                       : 4:2:0
Bit depth                                : 10 bits
Bits/(Pixel*Frame)                       : 0.100
Stream size                              : 12.2 GiB (96%)
Default                                  : Yes
Forced                                   : No
Color range                              : Limited
Color primaries                          : BT.2020
Transfer characteristics                 : PQ
Matrix coefficients                      : BT.2020 non-constant
Mastering display color primaries        : Display P3
Mastering display luminance              : min: 0.0050 cd/m2, max: 1000 cd/m2
Maximum Content Light Level              : 1000 cd/m2
Maximum Frame-Average Light Level        : 184 cd/m2

Audio
ID                                       : 2
Format                                   : E-AC-3
Format/Info                              : Enhanced AC-3
Commercial name                          : Dolby Digital Plus
Codec ID                                 : A_EAC3
Duration                                 : 1 h 58 min
Bit rate mode                            : Constant
Bit rate                                 : 640 kb/s
Channel(s)                               : 6 channels
Channel layout                           : L R C LFE Ls Rs
Sampling rate                            : 48.0 kHz
Frame rate                               : 31.250 FPS (1536 SPF)
Compression mode                         : Lossy
Stream size                              : 542 MiB (4%)
Title                                    : DDP 5.1
Language                                 : English
Service kind                             : Complete Main
Default                                  : No
Forced                                   : No

Text #1
ID                                       : 3
Format                                   : UTF-8
Codec ID                                 : S_TEXT/UTF8
Codec ID/Info                            : UTF-8 Plain Text
Duration                                 : 1 h 50 min
Bit rate                                 : 31 b/s
Count of elements                        : 1010
Stream size                              : 25.9 KiB (0%)
Language                                 : English
Default                                  : No
Forced                                   : No

Text #2
ID                                       : 4
Format                                   : UTF-8
Codec ID                                 : S_TEXT/UTF8
Codec ID/Info                            : UTF-8 Plain Text
Duration                                 : 1 h 58 min
Bit rate                                 : 38 b/s
Count of elements                        : 1358
Stream size                              : 33.4 KiB (0%)
Title                                    : SDH
Language                                 : English
Default                                  : No
Forced                                   : No

Menu
00:00:00.000                             : en:Studio Logo
00:00:30.000                             : en:Scene 2
00:03:41.000                             : en:Scene 3
00:09:58.000                             : en:Scene 4
00:15:37.000                             : en:Scene 5
00:19:51.000                             : en:Scene 6
00:23:00.000                             : en:Scene 7
00:30:30.000                             : en:Scene 8
00:35:48.000                             : en:Scene 9
00:42:04.000                             : en:Scene 10
00:51:10.000                             : en:Scene 11
00:58:46.000                             : en:Scene 12
01:01:41.000                             : en:Scene 13
01:09:53.000                             : en:Scene 14
01:12:20.000                             : en:Scene 15
01:16:41.000                             : en:Scene 16
01:23:03.000                             : en:Scene 17
01:25:51.000                             : en:Scene 18
01:28:19.000                             : en:Scene 19
01:31:39.000                             : en:Scene 20
01:33:42.000                             : en:Scene 21
01:37:24.000                             : en:Scene 22
01:51:00.000                             : en:Scene 23
01:53:36.000                             : en:End Credits




                                                                                                                                                                                                        
                                                                                                                                                                                                                                                                                                                                                                                                                                                                                                                                                                                                                                                                                                                                                                                                                                                        
7db08b53b60c8b3cdc6b19f7d1247ccc.zip (64.38 KB, 下载次数: 9)

回复

使用道具 举报

小黑屋|磁力链接吧 |网站地图

本网站所有资源来自网络,如无意中侵犯了您的权益,请发邮件至 [email protected],立即清除相关链接

GMT+8, 2021-2-27 13:50 , Processed in 0.126423 second(s), 23 queries .

Powered by Discuz! X3.2

© 2001-2013 Comsenz Inc.

快速回复 返回顶部 返回列表